<?xml version="1.0" standalone="no"?>
<!DOCTYPE svg PUBLIC "-//W3C//DTD SVG 1.1//EN" "http://www.w3.org/Graphics/SVG/1.1/DTD/svg11.dtd" >
<svg xmlns="http://www.w3.org/2000/svg" xmlns:xlink="http://www.w3.org/1999/xlink" version="1.1">
<metadata>
Created by FontForge 20170924 at Sun Nov  4 16:33:35 2012
 By www-data
truefonts.blogspot.com
</metadata>
<defs>
<font id="ornaments" horiz-adv-x="1014" >
  <font-face 
    font-family="ornaments"
    font-weight="400"
    font-stretch="normal"
    units-per-em="2048"
    panose-1="2 0 5 0 0 0 0 0 0 0"
    ascent="1638"
    descent="-410"
    x-height="1350"
    cap-height="1030"
    bbox="0 0 2622 1680"
    underline-thickness="150"
    underline-position="-292"
    unicode-range="U+0020-F002"
  />
<missing-glyph horiz-adv-x="1024" 
d="M100 0v1434h824v-1434h-824zM150 50h724v1334h-724v-1334zM325 1148q31 28 58 43q53 30 112 30q92 0 148 -47.5t56 -127.5q0 -49 -23 -98.5t-87 -129.5q-63 -80 -99 -132t-36 -99q0 -38 24 -133h-32q-35 97 -35 148q0 76 81.5 218t81.5 217q0 57 -33 90t-91 33
q-38 0 -69 -17q-26 -15 -56 -40v45zM389 334l57 58q11 10 20 10q10 0 22 -11l56 -60q9 -11 9 -20q0 -11 -10 -22l-56 -62q-14 -14 -21 -14q-11 0 -20 10l-61 71q-7 9 -7 18q0 10 11 22z" />
    <glyph glyph-name=".notdef" horiz-adv-x="1024" 
d="M100 0v1434h824v-1434h-824zM150 50h724v1334h-724v-1334zM325 1148q31 28 58 43q53 30 112 30q92 0 148 -47.5t56 -127.5q0 -49 -23 -98.5t-87 -129.5q-63 -80 -99 -132t-36 -99q0 -38 24 -133h-32q-35 97 -35 148q0 76 81.5 218t81.5 217q0 57 -33 90t-91 33
q-38 0 -69 -17q-26 -15 -56 -40v45zM389 334l57 58q11 10 20 10q10 0 22 -11l56 -60q9 -11 9 -20q0 -11 -10 -22l-56 -62q-14 -14 -21 -14q-11 0 -20 10l-61 71q-7 9 -7 18q0 10 11 22z" />
    <glyph glyph-name=".null" horiz-adv-x="0" 
 />
    <glyph glyph-name="nonmarkingreturn" horiz-adv-x="508" 
 />
    <glyph glyph-name="space" unicode=" " horiz-adv-x="508" 
 />
    <glyph glyph-name="space" unicode="&#xa0;" horiz-adv-x="508" 
 />
    <glyph glyph-name="exclam" unicode="!" horiz-adv-x="2229" 
d="M935 1307h44q107 0 236 -79q121 79 233 79h44q151 0 320 -128v-8q-1 -8 -132 -35q-138 -43 -285 -193q-29 0 -35 -132q-48 -159 -145 -254h-4q-153 160 -153 359q-140 171 -377 237q-66 7 -66 18v8q168 128 320 128zM698 719h44q240 0 425 -224q40 -55 40 -65h4
q69 95 110 136q174 153 364 153h43q210 0 382 -180q105 -130 105 -236v-106q0 -90 -88 -188q-10 0 -44 109q-133 206 -342 206h-35q-289 0 -486 -324h-13q-198 324 -487 324h-35q-220 0 -346 -219q-29 -95 -40 -96q-92 97 -92 228v44q0 183 206 346q149 92 285 92z" />
    <glyph glyph-name="quotedbl" unicode="&#x22;" horiz-adv-x="1691" 
d="M533 1443h25q63 0 84 -90q-9 -90 -77 -90q-11 -16 -20 -52q0 -146 207 -245q67 -58 122 -135q112 154 232 193q97 106 97 187q-7 65 -65 65q-32 35 -32 77q21 90 84 90h25q86 0 104 -155v-19q0 -101 -91 -206v-13l13 6h65q253 0 335 -199q6 -25 6 -52v-26
q0 -130 -174 -167q-120 0 -174 103q-6 13 -6 19q38 23 38 58v20q0 62 -103 77h-32q-277 -50 -277 -258q0 -136 129 -225v-7q-17 -32 -52 -32l-32 7l7 -33v-70q0 -142 -97 -271q-97 129 -97 271v70l7 33l-45 -7q-27 9 -39 32v7q129 85 129 238q0 161 -226 239q-24 6 -51 6
h-32q-103 -15 -103 -77v-20q0 -25 38 -64q-52 -116 -180 -116q-174 37 -174 167v26q0 186 271 245q23 6 70 6h65l13 -6v13q-90 105 -90 206v19q17 155 103 155z" />
    <glyph glyph-name="numbersign" unicode="#" horiz-adv-x="1567" 
d="M841 1424h8q92 -97 92 -216v-4q0 -21 -4 -68h4q111 83 204 88q60 -67 60 -152v-12q0 -80 -60 -144q-40 4 -60 4q-192 0 -192 -376v-20q1 -8 8 -8q133 156 300 156h12q212 0 336 -192q20 -44 20 -76v-72q0 -74 -104 -124q-16 -8 -44 -8h-28q-76 0 -128 96q-8 9 -16 64
q40 23 40 60v4q0 78 -136 96q-189 0 -224 -304v-88q0 -64 12 -124q-8 -4 -12 -4q-45 16 -88 16q-24 0 -88 -16q0 4 -4 4q12 60 12 124v52q-8 257 -148 324q-39 12 -76 16q-136 -18 -136 -96v-4q0 -37 40 -60q0 -114 -132 -160h-40q-105 0 -148 124q-4 21 -4 40v24
q0 145 200 248q76 36 160 36h12q167 0 300 -156q8 0 8 8v20q0 376 -200 376q-50 -4 -56 -4q-56 72 -56 144v12q0 85 60 152q93 -5 204 -88h4q-4 47 -4 68v12q0 105 92 208z" />
    <glyph glyph-name="dollar" unicode="$" horiz-adv-x="1173" 
d="M637 1520h4q100 -106 100 -292q0 -78 -68 -512v-20h12q85 220 228 220q84 -13 84 -80q-6 -32 -16 -32q-19 12 -60 20q-76 0 -136 -104l8 -4q59 28 120 28q162 0 240 -168q8 -26 8 -36v-72q-34 -132 -120 -132q-4 8 -4 12q12 35 16 84q0 130 -136 168q-4 4 -32 4
q-177 0 -208 -232q-4 -25 -4 -56q0 -57 32 -296q-23 -20 -40 -20h-52q-40 8 -40 28q32 222 32 292q0 226 -164 280l-56 4q-113 0 -156 -136q-4 -35 -4 -40q0 -15 16 -88q-8 -4 -12 -4q-116 38 -116 164v16q0 138 176 216q50 12 84 12q45 0 116 -28l4 8q-64 100 -136 100
q-25 -4 -64 -20q-6 10 -12 32q0 69 88 80q138 0 224 -220h12v4q0 26 -64 456q0 43 -4 72q0 183 100 292z" />
    <glyph glyph-name="percent" unicode="%" horiz-adv-x="1610" 
d="M822 1492h8q96 -107 96 -212v-28q0 -20 -4 -60h8q126 92 216 92q60 -92 60 -168q0 -81 -64 -156l-64 4q-150 0 -192 -228q-8 -62 -8 -120v-76h8q135 164 312 164h16q191 0 324 -160q48 -69 48 -120v-76q-36 -140 -168 -140q-114 0 -164 132q0 21 -4 36q44 33 44 68
q-26 100 -144 100q-185 0 -232 -276q-4 -52 -4 -84v-52q0 -59 12 -128q-8 -4 -12 -4q-46 16 -80 16h-16q-25 0 -88 -16q0 4 -4 4q12 69 12 128v52q0 275 -168 348q-41 12 -72 12q-109 0 -140 -96q0 -41 44 -72q-31 -168 -168 -168q-132 0 -168 140q-4 4 -4 32v28
q0 143 200 256q94 40 176 40h16q177 0 312 -164h8v76q0 265 -132 332q-41 16 -76 16q-50 -4 -60 -4q-60 83 -60 156q0 86 64 168q100 -8 212 -92h8q-4 40 -4 60v16q0 121 96 224z" />
    <glyph glyph-name="ampersand" unicode="&#x26;" horiz-adv-x="2155" 
d="M1130 1425q73 -104 124 -147q99 -86 323 -143q244 -46 404 -109q115 -59 123 -71v-5q0 -10 -14 -10q-316 0 -551 -180v-10l33 -38l-33 -38v-9q232 -181 560 -181l5 -9v-5q-90 -65 -261 -119q-378 -82 -518 -152q-145 -102 -190 -199h-9q-62 86 -110 138
q-162 126 -399 161q-324 76 -451 157l-14 14v5q0 9 14 9q338 0 551 190l-33 38l33 38q-208 190 -560 190l-5 10v5q90 65 261 118q378 82 518 152q151 109 190 200h9zM1126 1197q-91 -300 -257 -480v-9q179 -197 252 -475l9 -5q91 300 257 480v9q-179 197 -252 475z" />
    <glyph glyph-name="quotesingle" unicode="'" horiz-adv-x="1998" 
d="M1047 1407q10 0 72 -167q78 -118 127 -175q-151 -133 -151 -397q8 -70 8 -80h16q125 175 341 175h24q340 0 493 -437q16 -64 16 -135v-104q0 -15 -16 -15q-230 55 -246 79q24 80 31 143q0 250 -246 350q-14 8 -79 16q-234 0 -318 -239l-16 -135q8 -106 39 -278l-16 -8
h-158q-16 0 -16 16q31 153 39 270q0 262 -206 350q-87 24 -128 24q-211 0 -310 -263l-15 -95q0 -30 31 -159q-58 -24 -254 -71l-8 15v104q0 348 334 532q81 40 175 40h24q216 0 341 -175h16l8 96q0 243 -151 381q147 178 191 342h8z" />
    <glyph glyph-name="parenleft" unicode="(" horiz-adv-x="2330" 
d="M1240 728h44q173 0 276 -204q16 -63 16 -80l-12 -8q-77 48 -148 48q-85 0 -152 -64h-4q-67 64 -152 64q-64 0 -152 -48l-8 12q0 116 140 232q88 48 152 48zM492 560h28q172 0 240 -200q4 -35 4 -40q0 -122 -112 -172q-18 -8 -36 -8q-112 18 -112 112q0 74 92 108v8
q-31 64 -104 64q-86 0 -128 -112q-4 -15 -4 -32v-16q0 -121 152 -176q16 -8 44 -8h28q116 0 312 216q105 96 200 96h28q71 0 136 -60h4q65 60 136 60h28q133 0 332 -228q101 -84 180 -84h28q121 0 188 136q8 28 8 48v16q-25 144 -136 144q-100 -17 -100 -72q92 -33 92 -112
q0 -91 -116 -108q-97 0 -140 144q-4 22 -4 36q0 146 164 224q40 16 80 16h28q121 0 212 -140q28 -57 28 -108v-36q0 -171 -208 -264q-51 -12 -76 -12h-48q-152 0 -336 224q-103 104 -192 104q-116 0 -116 -116q-17 -16 -32 -16h-4q-38 0 -44 76q-27 56 -112 56
q-103 0 -260 -188q-137 -140 -260 -140h-48q-151 0 -256 164q-28 64 -28 112v36q0 169 200 244z" />
    <glyph glyph-name="parenright" unicode=")" horiz-adv-x="1439" 
d="M716 1455h17q64 0 119 -48q-68 -375 -68 -586h30q135 0 190 159q7 15 7 44v24q0 14 -10 71q58 44 115 44q75 -10 75 -30q0 -161 -116 -292v-7q57 0 173 -81q153 -147 153 -343v-13q-62 -48 -139 -48q-83 0 -149 95q27 64 27 95v17q0 115 -143 163q-23 3 -37 3h-3
q-116 0 -163 -115q-7 -34 -7 -61q0 -172 54 -526q-45 -20 -74 -20h-75q-74 9 -74 27q54 338 54 519q0 134 -129 173l-41 3h-3q-122 0 -173 -125q-7 -24 -7 -41v-17q0 -31 27 -95q-63 -95 -156 -95q-67 0 -132 48v13q0 225 190 370q99 54 136 54v7q-116 128 -116 299
q37 23 85 23q51 0 105 -47v-4q-10 -43 -10 -64v-24q0 -131 146 -196q32 -7 51 -7h30q0 209 -68 590q60 44 109 44z" />
    <glyph glyph-name="asterisk" unicode="*" horiz-adv-x="2045" 
d="M1092 1429h10q117 -136 117 -306q0 -45 -19 -145h10q99 80 197 80q156 0 235 -184q-4 0 -4 -4q-47 9 -85 9q-164 0 -296 -183v-10l169 76q89 18 141 18h42q218 0 362 -202v-14q0 -9 -9 -9q-47 9 -94 9h-42q-424 0 -705 -526q-12 -38 -24 -38q-6 0 -89 160
q-277 404 -640 404h-42q-34 0 -103 -9q-5 9 -5 14q141 211 367 211h42q139 0 306 -94h4v10q-130 183 -301 183q-33 0 -80 -9q-4 9 -4 14q87 174 239 174q92 0 193 -80h10v4q-19 80 -19 137v9q0 159 117 301z" />
    <glyph glyph-name="plus" unicode="+" horiz-adv-x="1733" 
d="M892 1415h10q9 0 40 -125q82 -225 480 -425q192 -108 270 -320q10 -53 10 -70v-120q0 -127 -145 -265q-121 -90 -230 -90h-30q-233 0 -340 240q-15 54 -20 125q33 290 240 290q142 0 165 -170q0 -68 -50 -115h-15q-29 20 -45 20q-65 -13 -65 -60v-20q0 -75 120 -115
q6 -5 35 -5h20q145 0 210 185q5 26 5 50v35q0 169 -185 265q-28 15 -115 25q-242 0 -335 -260q-12 -90 -20 -90h-10q-8 0 -25 115q-108 235 -325 235q-228 0 -300 -250q-5 -19 -5 -40v-35q0 -172 190 -235h45q111 0 155 110v30q0 49 -70 60q-22 -7 -40 -20h-15
q-50 47 -50 115q22 170 170 170q202 0 235 -295q0 -247 -260 -345q-36 -15 -100 -15h-30q-199 0 -335 220q-45 92 -45 180v30q0 319 465 535q237 147 305 345q27 105 35 105z" />
    <glyph glyph-name="comma" unicode="," horiz-adv-x="1774" 
d="M934 1429h5q7 -2 58 -158q92 -209 474 -398q196 -134 240 -259q38 -81 38 -134v-120q0 -122 -139 -264q-122 -96 -249 -96h-34q-192 0 -311 201q-39 79 -39 168q0 202 168 278q21 10 72 15q168 -25 168 -168v-19q-24 -106 -62 -106q-17 24 -53 24q-53 0 -62 -72v-5
q0 -88 143 -124h34q149 0 216 192l5 67q0 171 -173 273q-54 29 -115 29h-43q-173 0 -283 -182q-43 -90 -43 -163l-10 -5h-5q-10 10 -33 134q-115 216 -302 216h-44q-196 0 -278 -235q-9 -50 -9 -77q0 -171 167 -240q19 -9 53 -9h34q144 36 144 124v5q-6 72 -72 72
q-16 0 -48 -24q-32 0 -58 106v19q24 168 168 168q161 0 225 -197q10 -37 15 -96q0 -270 -283 -359q-36 -10 -67 -10h-34q-209 0 -340 211q-53 95 -53 192v33q0 299 398 499q296 160 374 374q33 115 43 120z" />
    <glyph glyph-name="hyphen" unicode="-" horiz-adv-x="1506" 
d="M318 1620h5q117 -118 117 -263h70q10 0 10 -14q-18 -34 -24 -99q0 -159 183 -249q48 -18 85 -18h47q192 0 272 220q0 31 5 47q-5 51 -23 108l9 5h70q0 145 118 263h4q90 -85 108 -178q12 -85 19 -85h66q9 -1 9 -9q-60 -239 -206 -362q-101 -104 -282 -169
q-99 -81 -99 -254v-32q0 -5 -4 -5l4 -9v-29q0 -204 94 -483l-9 -5q-92 19 -169 23q-86 -4 -183 -23l-5 9q94 269 94 479v29q0 4 5 4l-5 10v32q0 238 -169 282q-97 29 -263 188q-155 220 -155 319l9 5h66q7 0 24 108q31 88 103 155z" />
    <glyph glyph-name="hyphen" unicode="&#xad;" horiz-adv-x="1506" 
d="M318 1620h5q117 -118 117 -263h70q10 0 10 -14q-18 -34 -24 -99q0 -159 183 -249q48 -18 85 -18h47q192 0 272 220q0 31 5 47q-5 51 -23 108l9 5h70q0 145 118 263h4q90 -85 108 -178q12 -85 19 -85h66q9 -1 9 -9q-60 -239 -206 -362q-101 -104 -282 -169
q-99 -81 -99 -254v-32q0 -5 -4 -5l4 -9v-29q0 -204 94 -483l-9 -5q-92 19 -169 23q-86 -4 -183 -23l-5 9q94 269 94 479v29q0 4 5 4l-5 10v32q0 238 -169 282q-97 29 -263 188q-155 220 -155 319l9 5h66q7 0 24 108q31 88 103 155z" />
    <glyph glyph-name="period" unicode="." horiz-adv-x="2304" 
d="M1221 1044q111 0 156 -132q4 -15 4 -32v-32q1 -8 8 -8q207 144 396 144h36q8 -1 8 -8v-8q-8 -8 -132 -44q-107 -44 -256 -192q-146 -164 -236 -164h-8q-81 0 -292 232q-161 135 -320 164v12q1 8 8 8h36q194 0 400 -148h8q0 8 4 8l-4 8v20q0 132 144 172h40zM581 836
q241 0 400 -248q121 -152 216 -152h20q117 0 280 240q143 160 336 160q309 0 432 -300q16 -49 16 -84v-108q0 -118 -132 -252q-109 -92 -228 -92h-36q-204 0 -324 192q-32 63 -32 132q0 146 148 224q36 12 60 12h24q149 0 196 -168q4 -22 4 -36q0 -76 -64 -152q1 -8 8 -8h24
q138 0 196 172q4 27 4 44v28q0 176 -216 260q-51 12 -96 12q-177 0 -324 -220q-134 -164 -284 -164h-4q-174 0 -324 220q-127 164 -292 164q-211 0 -296 -212q-8 -38 -8 -60v-28q0 -146 156 -212q27 -4 44 -4h24q8 0 8 8q-64 75 -64 156q0 146 164 196q15 4 36 4h24
q144 0 204 -196q4 -21 4 -48q0 -181 -216 -288q-80 -28 -140 -28h-36q-206 0 -328 228q-36 79 -36 152v40q0 211 216 356q110 60 236 60z" />
    <glyph glyph-name="slash" unicode="/" horiz-adv-x="1333" 
d="M669 1425q123 -94 123 -179v-36q0 -107 -123 -195h-5q-123 94 -123 179v36q0 106 123 195h5zM597 994h5q61 -56 67 -56l62 56h5l10 -5q-51 -213 -51 -461h5q124 128 277 128q249 0 338 -261q5 -35 5 -57v-46q-6 -94 -31 -107h-46q-133 18 -133 107q41 41 41 103
q0 111 -149 169l-66 10q-134 0 -195 -164q-10 -64 -10 -108q0 -104 51 -297v-5q-89 21 -118 21q-23 0 -113 -21v5q51 187 51 313q0 182 -143 246l-62 10q-215 -30 -215 -190q0 -40 41 -97q0 -78 -128 -102h-51q-25 13 -31 107v46q0 182 205 292q71 26 138 26q153 0 277 -128
h5v5q0 241 -51 456z" />
    <glyph glyph-name="zero" unicode="0" horiz-adv-x="1318" 
d="M677 1556h16q66 0 112 -36q-80 -275 -80 -424q4 -8 4 -12h4q69 126 276 196l68 12q44 -52 44 -120q0 -47 -40 -104q-48 4 -72 4q-162 0 -256 -156q-4 -8 -4 -12h8q109 88 204 88h44q153 0 264 -168q24 -61 24 -80v-92q0 -104 -116 -176q-39 -20 -84 -20h-16q-8 0 -8 8
q76 70 76 148v20q0 135 -164 160q-166 0 -216 -268q-12 -83 -12 -140q0 -160 76 -360q-45 -24 -88 -24h-108q-81 9 -88 28q76 189 76 360q0 306 -164 392q-58 12 -64 12q-164 -25 -164 -160v-20q0 -78 76 -148q0 -8 -8 -8h-16q-142 0 -200 172l-4 48v24q0 199 232 284
q38 8 60 8h44q95 0 204 -88h8v4q-90 164 -268 164l-64 -4q-40 53 -40 116q0 61 48 108q129 -15 264 -116q76 -79 76 -92h4l4 16q0 144 -80 420q43 36 108 36z" />
    <glyph glyph-name="one" unicode="1" horiz-adv-x="1092" 
d="M620 1356q62 -75 62 -183v-11l-4 -18l8 -4q69 44 131 44h15q7 -1 7 -7q-139 -129 -139 -205v-4h4q49 26 95 26h22q145 0 197 -161q4 -25 4 -40v-29q0 -111 -102 -132h-33q-48 0 -62 70v18q0 49 54 66q0 -28 37 -33q26 9 26 36q0 79 -92 117q-16 8 -47 8q-146 0 -146 -282
q-4 -106 -15 -106h-44q-7 0 -7 8q0 286 -73 350q-38 30 -81 30h-3q-94 0 -132 -99q0 -21 -4 -26q5 -36 33 -36q14 0 37 33q51 -27 51 -73q-15 -81 -66 -81h-29q-86 0 -106 128v29q0 142 157 201q25 4 40 4h26q41 0 99 -26l3 8q-39 116 -117 175q0 2 -22 22v4q2 7 8 7h11
q61 0 135 -44q0 4 4 4l-4 33q0 97 62 179zM624 504q87 -13 87 -84v-7q-8 -95 -91 -95q-81 0 -91 95q0 83 95 91zM594 300l26 -4h7l19 4q7 -9 7 -15q8 -199 22 -205q3 0 69 -14q20 0 51 44q20 14 44 14q47 0 59 -62q-8 -62 -59 -62h-446q-39 0 -47 55v18q0 40 58 51
q36 0 73 -51q15 -7 22 -7q61 14 73 14q16 182 22 220z" />
    <glyph glyph-name="two" unicode="2" horiz-adv-x="1718" 
d="M890 1680h10q180 -206 180 -473q0 -26 -10 -118q118 46 179 46h57q206 0 339 -226q31 -80 31 -123v-51q0 -189 -206 -288q-52 -21 -92 -21h-31q-160 0 -236 180q-5 28 -5 46v31q27 170 143 170h26q112 0 134 -149v-5q0 -40 -21 -47q-26 26 -46 26h-16q-51 -12 -51 -51
q0 -72 93 -72q139 0 174 200q0 176 -210 242q-46 5 -57 5q-229 0 -303 -262q-26 -115 -26 -221q0 -143 31 -288q20 10 57 10q89 0 113 -128q-23 -113 -113 -113h-278q-94 0 -113 118q22 123 123 123q23 0 47 -10q20 58 31 293q0 339 -191 447q-79 30 -143 31
q-193 0 -257 -206q-5 -19 -5 -46q35 -195 179 -195q76 0 88 72q-14 51 -52 51h-15q-20 0 -46 -26h-5q-16 0 -16 57q25 144 134 144h25q120 0 149 -185q0 -160 -190 -231q-20 -11 -56 -11h-31q-200 0 -288 242q-10 23 -10 67v46q0 206 247 329q71 25 138 25h26q83 0 195 -46
q-10 85 -10 134q0 248 180 457zM813 1166q0 -121 82 -221q82 101 82 226q0 126 -82 221q-82 -97 -82 -226z" />
    <glyph glyph-name="three" unicode="3" 
d="M517 1560h22q75 0 101 -123l4 -33q0 -124 -112 -304h-4q-50 61 -94 189q-14 39 -22 119q18 152 105 152zM90 1332q124 -9 297 -138q89 -88 141 -184q57 107 149 188q102 97 293 134l3 -7v-203l-3 -7q-49 3 -73 3q-173 0 -278 -181v-7h18q104 0 148 -119q4 -26 4 -44
q0 -94 -116 -141q-20 -3 -33 -3h-18q-7 -2 -7 -8q111 -188 286 -188h14q19 0 55 4l3 -8v-188q0 -7 -7 -7q-117 12 -260 105q-127 110 -163 192q-9 22 -15 22q-56 -106 -155 -196q-154 -112 -286 -123l-4 7v188l4 8q36 -4 54 -4h14q176 0 286 188v4l-7 4h-18q-113 0 -148 137
v15q0 110 119 152q20 3 33 3h18v4q-22 68 -131 145q-78 39 -148 39q-24 0 -72 -3l-4 7v203q1 7 7 7zM528 460q46 -52 98 -192q14 -63 18 -112q0 -116 -90 -156h-37q-87 0 -105 152q0 125 113 308h3z" />
    <glyph glyph-name="four" unicode="4" horiz-adv-x="782" 
d="M399 1402q94 -123 94 -184v-15q-8 -54 -8 -56h4q41 26 94 26q79 0 168 -33v-8q-96 -52 -161 -94q-97 -84 -97 -101l4 -26q0 -27 -38 -79q-34 -227 -34 -412q0 -168 30 -416l-7 -4h-98q-7 0 -7 7q30 238 30 417q-17 431 -49 431q-22 32 -22 56q3 20 3 34
q-134 136 -213 161q-49 22 -49 26v4q0 14 150 37h30q42 0 86 -26h4v4q-8 40 -8 52v15q0 61 94 184zM73 1065q251 -165 251 -641v-8q0 -184 -19 -184q-11 0 -22 218q-27 203 -75 337q-19 82 -113 229q-30 26 -30 45zM729 1065l4 -8v-4q-166 -218 -203 -506q-18 -111 -30 -311
l-7 -4q-19 0 -19 180v23q0 452 244 626q7 4 11 4z" />
    <glyph glyph-name="five" unicode="5" horiz-adv-x="1225" 
d="M609 1439h5q75 -98 75 -268v-27q95 75 185 75h30q138 0 220 -145q22 -45 22 -84v-26q0 -156 -176 -203h-39q-105 0 -128 102v13q0 65 84 75q65 0 75 -88q0 -11 -14 -36l9 -4q109 0 132 154q0 126 -158 180q-16 0 -40 5q-161 0 -224 -172v-9q88 -115 88 -259
q0 -130 -88 -273q68 -172 220 -172q147 0 198 154q4 24 4 35q-24 150 -141 150v-4q14 -23 14 -44q0 -68 -84 -80h-4q-55 0 -71 75v13q23 102 128 102h26q133 0 185 -163q4 -16 4 -40v-26q0 -145 -189 -225l-53 -4h-30q-93 0 -185 75v-35q0 -159 -75 -260h-5q-74 102 -74 264
v31q-93 -75 -185 -75h-31q-138 0 -220 145q-22 45 -22 84v26q0 156 176 203h40q105 0 127 -102v-13q0 -65 -83 -75q-64 0 -75 88q13 38 13 40h-4q-116 0 -137 -158q0 -117 150 -172q7 -4 53 -9q156 0 220 176v5q-88 115 -88 259q0 131 88 273q-66 167 -203 167h-26
q-139 0 -189 -145q-5 -31 -5 -35q22 -154 137 -154q0 4 4 4q-13 22 -13 49q0 63 88 75q55 0 70 -75v-13q-22 -102 -127 -102h-27q-133 0 -185 163q-4 16 -4 40v26q0 132 154 207q60 22 106 22q100 0 198 -75v31q0 162 74 264zM609 915q-61 -84 -61 -132h4q34 22 66 22
q47 -17 57 -17q-40 127 -66 127zM548 651q40 -127 66 -127q61 84 61 132h-4q-33 -22 -66 -22q-47 17 -57 17z" />
    <glyph glyph-name="six" unicode="6" horiz-adv-x="700" 
d="M359 1547h3q10 -8 52 -139q54 -135 175 -274v-4q-124 -103 -150 -208q-44 -148 -44 -359v-14q0 -235 62 -545l-7 -4q-58 11 -88 11q-34 0 -95 -11q-3 7 -3 11q62 306 62 541q0 396 -132 520q0 3 -62 58v4q161 184 219 410zM88 1035q55 0 124 -117q55 -117 55 -260
q-7 -145 -25 -150h-4q-9 0 -18 147q-44 238 -143 366v7q0 7 11 7zM640 1035l4 -7v-7q-94 -134 -121 -271q-21 -70 -36 -242h-8q-18 4 -25 154q0 263 153 366q24 7 33 7z" />
    <glyph glyph-name="seven" unicode="7" 
d="M402 1546h29q132 0 240 -127q99 127 236 127h29q124 0 233 -105q69 -83 69 -150v-87q0 -46 -62 -124q-68 -58 -134 -58q-46 0 -77 26v3q0 6 59 22q69 45 69 117q0 84 -106 123l-36 4q-119 0 -178 -186q-11 -43 -11 -80v-36q0 -143 105 -222q29 -16 29 -22
q-116 -84 -116 -145q-18 -41 -18 -99v-36q0 -159 123 -247q37 -18 73 -18q135 24 135 130q0 86 -99 124q-26 0 -29 11v4q0 14 77 25q122 0 185 -142q11 -24 11 -40v-87q0 -105 -138 -207q-87 -44 -138 -44h-88q-95 0 -207 124q-102 -124 -204 -124h-94q-92 0 -208 109
q-65 85 -65 164v36q0 128 135 197q25 11 65 14q46 0 76 -25v-4q0 -6 -58 -22q-69 -45 -69 -116q0 -85 106 -124l36 -3q119 0 178 185q11 44 11 80v36q0 143 -105 222q-29 16 -29 22q116 85 116 146q18 41 18 98v36q0 157 -120 244q-33 22 -76 22q-135 -25 -135 -131
q0 -85 98 -124q27 0 29 -11v-3q0 -15 -76 -26q-127 0 -193 157q-7 34 -7 54v37q0 152 186 251q68 25 120 25zM547 771q92 -52 116 -102h8q76 91 120 99v3q-92 52 -117 102h-7q-76 -90 -120 -98v-4z" />
    <glyph glyph-name="eight" unicode="8" horiz-adv-x="1662" 
d="M868 1421q18 -13 85 -144q105 -217 105 -368v-23q0 -21 -3 -66l6 -3l23 3q156 0 233 -151l-9 -6q-42 6 -89 10q-236 0 -351 -194q0 -13 -10 -13q-46 98 -141 151q-106 56 -213 56q-16 0 -96 -10l-6 10q79 147 236 147q13 -3 23 -3q0 3 3 3l-3 23v40q0 222 200 538h7z
M1242 601q238 0 377 -207q20 -33 20 -43v-10q0 -6 -7 -6q-56 19 -203 29q-340 0 -518 -256q-33 -64 -46 -108h-4q-8 3 -42 92q-98 164 -286 230q-123 42 -239 42q-83 0 -214 -29q-3 6 -3 10q49 128 190 206q101 46 201 46h6q239 0 384 -210h3q145 214 381 214z" />
    <glyph glyph-name="nine" unicode="9" horiz-adv-x="2480" 
d="M1267 1413h9q137 -156 174 -349l5 -31h4q95 27 144 27h26q124 0 192 -66q-5 -12 -113 -48q-266 -133 -428 -501h-13l-104 192q-158 258 -423 344q-18 0 -18 13v4q85 62 179 62h39q49 0 144 -27h5q24 177 152 354zM714 632q365 0 523 -309q19 -53 35 -70q11 11 61 126
q177 253 497 253q377 0 580 -327q52 -119 52 -200v-57q0 -9 -9 -9h-4q-289 196 -615 196q-334 0 -558 -235h-9q-221 235 -566 235q-314 0 -607 -196h-8q-9 0 -9 9v30q0 269 283 463q177 91 354 91z" />
    <glyph glyph-name="colon" unicode=":" horiz-adv-x="1533" 
d="M823 1406h4q6 -1 31 -89q44 -95 185 -310q24 -47 24 -58v-4q0 -5 -79 -27q-109 -56 -161 -162h-4q-44 79 -92 114q-42 42 -138 68q-14 0 -14 7q10 49 162 275q76 149 76 183zM1136 856q212 0 344 -230q31 -76 31 -117v-93q-10 -96 -45 -96h-7q-28 0 -37 75
q-79 169 -217 169h-31q-162 0 -230 -193q-21 -62 -21 -123v-42q0 -72 31 -175q-55 -31 -117 -31h-27q-62 0 -117 34q34 98 34 193q0 239 -172 320q-38 17 -89 17h-24q-141 0 -217 -176q-9 -72 -38 -72h-13q-45 45 -45 138v41q0 144 158 282q111 76 220 76h7q199 0 309 -193
q35 63 83 113q115 83 230 83z" />
    <glyph glyph-name="semicolon" unicode=";" horiz-adv-x="1369" 
d="M723 1564q5 0 76 -140q34 -64 172 -188v-4q-157 -131 -204 -248q-39 -80 -44 -80q-9 4 -52 104q-59 109 -196 224v4q151 134 192 224q47 100 56 104zM575 1016q101 -113 144 -232h4l72 136q41 63 76 96l12 -8q-12 -50 -12 -132q0 -292 144 -388q36 -20 60 -20h20
q82 0 124 112q4 21 4 40q0 73 -88 136v4q1 8 8 8q128 0 180 -156v-100q0 -76 -120 -180q-90 -44 -152 -44h-32q-117 0 -232 112h-8q12 -180 44 -396q-8 -4 -12 -4l-92 8l-92 -8l-4 8q44 315 44 392h-8q-115 -112 -232 -112h-32q-182 0 -268 200q-8 30 -8 56v36
q35 188 188 188l4 -8v-4q-88 -60 -88 -144v-4q0 -97 116 -140h20q149 0 204 260q12 80 12 148q0 82 -12 132z" />
    <glyph glyph-name="semicolon" unicode="&#x37e;" horiz-adv-x="1369" 
d="M723 1564q5 0 76 -140q34 -64 172 -188v-4q-157 -131 -204 -248q-39 -80 -44 -80q-9 4 -52 104q-59 109 -196 224v4q151 134 192 224q47 100 56 104zM575 1016q101 -113 144 -232h4l72 136q41 63 76 96l12 -8q-12 -50 -12 -132q0 -292 144 -388q36 -20 60 -20h20
q82 0 124 112q4 21 4 40q0 73 -88 136v4q1 8 8 8q128 0 180 -156v-100q0 -76 -120 -180q-90 -44 -152 -44h-32q-117 0 -232 112h-8q12 -180 44 -396q-8 -4 -12 -4l-92 8l-92 -8l-4 8q44 315 44 392h-8q-115 -112 -232 -112h-32q-182 0 -268 200q-8 30 -8 56v36
q35 188 188 188l4 -8v-4q-88 -60 -88 -144v-4q0 -97 116 -140h20q149 0 204 260q12 80 12 148q0 82 -12 132z" />
    <glyph glyph-name="less" unicode="&#x3c;" horiz-adv-x="1170" 
d="M619 1548h4q148 -205 148 -356v-28l4 -8q59 16 92 16q184 0 268 -180q16 -37 16 -68v-88q0 -56 -104 -304q-24 -69 -24 -136q0 -23 16 -96l-8 -4q-132 110 -132 320v100q0 143 -32 168q-26 12 -40 12h-4q-116 0 -116 -372q0 -238 48 -520q-8 -4 -12 -4q-42 16 -124 24
q-34 0 -128 -24q0 4 -4 4q48 282 48 520q0 372 -116 372h-4q-72 0 -72 -156v-124q0 -211 -132 -320q-8 0 -8 12q16 47 16 96q0 92 -104 332q-28 75 -28 136v28q0 177 204 260q56 12 88 12q50 -4 88 -16l4 8v28q0 148 148 356z" />
    <glyph glyph-name="equal" unicode="=" horiz-adv-x="1728" 
d="M879 1420h32q84 0 117 -106q0 -6 6 -6l48 6q113 0 159 -107v-16q0 -6 -96 -32q-196 -135 -196 -303h5q156 224 372 224h11q267 0 361 -282v-128q0 -97 -132 -197q-37 -25 -123 -37q-82 0 -133 53l6 11l26 -5q186 23 186 170v21q0 106 -143 160q-21 5 -43 5h-21
q-167 0 -293 -250q-53 -121 -53 -282v-16q0 -127 32 -271q-59 -32 -90 -32h-43q-31 0 -90 32q32 144 32 271v16q0 362 -256 511q-49 21 -90 21h-21q-135 0 -186 -149v-37q0 -115 132 -165l64 -5q11 5 16 5l6 -11q-51 -53 -133 -53q-179 0 -256 223q-5 28 -5 54v32
q0 212 255 319q56 16 112 16h11q216 0 372 -224h5v6q0 166 -207 303q-85 18 -85 26v6q36 117 154 117h5l53 -6q28 96 70 96q0 12 47 16z" />
    <glyph glyph-name="greater" unicode="&#x3e;" horiz-adv-x="1672" 
d="M862 1388q87 -54 102 -125v-11q0 -7 -64 -34q-36 -30 -38 -30h-7q-51 44 -99 56l-3 8v4q0 60 102 132h7zM707 1191h15q68 0 133 -60h7q65 60 133 60h15q77 0 117 -53q0 -138 -136 -223l-61 -26q-26 -173 -26 -220h7q49 91 91 121q114 106 250 106h41q138 0 277 -155
q60 -101 60 -189v-15q0 -203 -204 -291q-30 -8 -64 -8h-23q-137 0 -185 125q0 3 -4 23l11 7q53 -30 102 -30h12q114 0 155 125q7 33 7 53q0 126 -166 189q-26 4 -42 4h-30q-138 0 -231 -144q-53 -106 -53 -257v-27q0 -122 34 -302l-7 -4h-167q-7 0 -7 8q34 171 34 298v27
q0 279 -167 370q-72 31 -117 31h-30q-130 0 -197 -140q-11 -34 -11 -57q0 -140 147 -174h27q45 0 106 30l7 -11q0 -62 -79 -113q-56 -31 -110 -31h-22q-172 0 -254 204q-15 49 -15 95v15q0 189 197 303q84 41 140 41h41q186 0 314 -181q23 -45 27 -46h7v4q0 67 -30 220
q-109 34 -155 113q-38 79 -38 140q55 45 117 45z" />
    <glyph glyph-name="question" unicode="?" horiz-adv-x="1987" 
d="M1040 1112q19 0 124 -248q88 -218 88 -400q0 -216 -144 -304q-37 -16 -68 -16h-8q-127 0 -188 184q-16 57 -16 112v48q0 250 204 624h8zM1036 744q-108 -196 -108 -336v-12q0 -140 100 -168h12q94 0 112 172q0 148 -112 344h-4zM444 600q202 0 368 -352
q109 -184 232 -184q136 0 292 316q130 220 304 220q215 0 296 -212q8 -38 8 -60v-36q0 -144 -156 -224q-49 -16 -84 -16h-12q-116 0 -192 112q-24 41 -24 80v20q0 107 124 156h28q94 0 124 -100q-4 0 -4 -4l-40 4h-12q-44 0 -60 -68q0 -58 80 -72h8q112 26 112 136v20
q0 117 -148 168q-38 8 -60 8q-147 0 -308 -308q-96 -153 -192 -192q-27 -12 -44 -12h-92q-90 0 -212 168q-119 205 -196 284q-65 60 -140 60q-150 0 -204 -152v-44q0 -111 112 -136h8q80 14 80 72q-16 68 -60 68h-12l-40 -4q-4 8 -4 12q37 92 124 92h4q102 0 148 -132v-44
q0 -128 -176 -188q-21 -4 -40 -4h-12q-156 0 -228 172q-12 32 -12 68v36q0 169 200 256q52 16 112 16z" />
    <glyph glyph-name="at" unicode="@" horiz-adv-x="1857" 
d="M947 1429h39q230 0 365 -248q35 -87 35 -160v-13q0 -13 -18 -13q-204 0 -395 -148h-13q-188 148 -404 148l-9 13v8q0 252 257 383q76 30 143 30zM617 882q186 0 347 -131q168 131 361 131q276 0 447 -265q57 -112 57 -187v-135q0 -137 -126 -247q-67 -48 -139 -48h-44
q-114 0 -186 130q-22 48 -22 92q0 160 178 221l52 4v5q0 70 -143 143q-48 13 -83 13q-138 0 -247 -152q-48 -39 -83 -39h-39q-61 0 -152 122q-92 69 -187 69q-130 0 -213 -135l-4 -26h4q169 0 222 -186l4 -39q0 -148 -160 -213q-17 -9 -48 -9h-44q-190 0 -260 252
q-9 43 -9 78v57q0 299 317 456q99 39 200 39z" />
    <glyph glyph-name="A" unicode="A" horiz-adv-x="1646" 
d="M777 1034h70q352 0 621 -318q161 -238 161 -403v-162q0 -121 -20 -121h-666q-74 -30 -111 -30h-35q-17 0 -101 30h-671q-25 19 -25 167v50q0 366 338 636q228 151 439 151zM91 252v-25q0 -5 -5 -5l5 -10v-66l5 -25h519q-15 24 -25 96q0 151 172 217q19 5 40 5h30
q140 0 202 -167q5 -19 5 -40v-30q0 -44 -20 -81h519l5 25v106q0 324 -312 565q-199 131 -414 131q-371 0 -610 -333q-116 -182 -116 -363zM807 893h20q55 0 71 -106q0 -102 -81 -242q-68 107 -81 237q15 111 71 111zM525 817q120 0 146 -313q-5 0 -5 -5q-207 138 -207 232
v26q0 50 66 60zM1115 817q60 -14 60 -60v-26q0 -94 -207 -232l-5 10q27 308 152 308zM303 600h25q96 0 232 -207l-10 -5q-308 28 -308 152q14 60 61 60zM1306 600h26q50 0 60 -65q0 -119 -313 -147q0 5 -5 5q137 207 232 207zM691 227v-10q0 -92 96 -126h45q86 0 111 116v20
q-24 116 -116 116h-20q-116 -26 -116 -116zM272 323q103 0 248 -81v-5q-157 -71 -232 -71h-21q-101 11 -101 66v20q0 56 106 71zM1367 323q101 -18 101 -71v-15q0 -57 -91 -71h-30q-76 0 -232 71v5q141 81 252 81z" />
    <glyph glyph-name="B" unicode="B" horiz-adv-x="2640" 
d="M102 1026h34q95 -28 95 -95v-28q0 -60 -75 -108q55 -166 197 -252q167 -95 347 -95q300 0 523 204q27 0 54 -88v-7q0 -35 -20 -61h1351q14 -2 14 -14v-339q0 -14 -14 -14h-706q-279 0 -346 -88l-41 -41h-7q-54 52 -54 129q0 46 34 95q-71 -7 -82 -7q-1004 0 -1257 354
q-149 186 -149 326v13q18 116 102 116z" />
    <glyph glyph-name="C" unicode="C" horiz-adv-x="2022" 
d="M989 1020h23q196 -121 196 -330v-62q0 -80 -55 -244q91 102 197 102q120 0 392 -258q159 -142 259 -142v-15q-87 -32 -149 -32q-157 0 -424 165q-79 39 -133 39q-189 -39 -189 -149q-18 -94 -94 -94h-23q-102 0 -102 149q-98 94 -189 94q-57 0 -384 -172
q-97 -32 -173 -32q-53 0 -141 32v15q114 0 322 196q218 204 329 204q105 0 196 -102v8q-55 144 -55 236v62q0 209 197 330z" />
    <glyph glyph-name="D" unicode="D" horiz-adv-x="1766" 
d="M872 1021q287 -129 287 -397q0 -78 -44 -228q94 15 267 288q176 198 357 198v-5q-137 -117 -173 -243q-153 -356 -218 -396q-61 -55 -134 -55h-5q-70 0 -174 55q-66 -124 -168 -238q-90 110 -163 238q-104 -55 -174 -55h-5q-179 0 -312 372q-94 238 -213 322v5
q253 0 481 -377q81 -94 143 -109v5q-43 137 -44 218q0 276 287 402h5z" />
    <glyph glyph-name="E" unicode="E" horiz-adv-x="2092" 
d="M1039 1020q210 -98 210 -290v-7q0 -213 -216 -469q-217 257 -217 469v7q0 198 217 290h6zM686 501q151 0 309 -291h13q14 0 25 6q10 -6 24 -6h13q156 291 315 291q133 0 402 -260q176 -154 272 -154v-7q0 -24 -136 -37h-19q-162 0 -439 173q-65 31 -117 31h-31
q-82 0 -179 -111v-49q-25 -87 -87 -87h-37q-87 25 -87 87v49q-97 111 -179 111h-31q-82 0 -321 -142q-120 -62 -235 -62h-19q-63 0 -142 31v13q133 0 458 315q139 99 228 99z" />
    <glyph glyph-name="F" unicode="F" horiz-adv-x="874" 
d="M430 1022q136 -46 136 -125q0 -35 -66 -173q-11 -24 -11 -59q4 -44 15 -44q24 10 77 15q120 -15 139 -41v-3h-3q-122 0 -195 -133q-15 -49 -15 -66v-3h4q60 121 187 121q162 -19 162 -155v-25q-4 -63 -15 -63q-73 0 -121 81q-18 85 -48 85h-7q-23 0 -48 -122
q-40 -89 -110 -121q-12 -7 -19 -7v-177q0 -7 -7 -7h-110q-7 0 -7 7v177q-72 25 -114 99q-25 53 -41 132l-22 19h-7q-33 0 -44 -81q-51 -85 -129 -85q-11 30 -11 63v25q0 99 99 144q36 11 66 11q123 0 184 -121h4v7q0 108 -136 180q-54 15 -77 15v3q19 26 139 41
q46 -4 81 -15q11 24 11 52q0 40 -70 183q-7 29 -7 44q0 75 136 122z" />
    <glyph glyph-name="G" unicode="G" horiz-adv-x="1543" 
d="M258 1015q271 0 426 -316q21 -35 47 -157h63q22 159 142 315q158 158 331 158h37q158 0 221 -174v-63q-43 -168 -163 -168h-11q-157 19 -157 158v16l5 26h-5q-62 0 -174 -84q-79 -82 -110 -184q63 -22 63 -74v-5q-13 -79 -74 -79v-5q0 -117 121 -221q43 42 84 42h6
q99 -16 99 -100v-16q-23 -84 -78 -84h-63q-93 0 -216 189q-58 119 -58 195h-63v-5q0 -153 -158 -316q-71 -63 -115 -63h-64q-55 0 -78 84v16q15 100 99 100h6q41 0 84 -42q121 104 121 221v5q-61 0 -74 79q0 54 58 79h5q-61 176 -194 242q-69 26 -95 26v-5q5 -10 5 -21v-16
q-20 -158 -157 -158h-11q-120 0 -163 168v48q0 128 195 189h63z" />
    <glyph glyph-name="H" unicode="H" horiz-adv-x="879" 
d="M426 1016h4q153 -123 153 -280v-26q0 -83 -48 -193q122 98 263 98q58 -2 58 -18v-11q-98 -52 -160 -94q-212 -180 -212 -390q11 -19 11 -36v-4q-13 -62 -54 -62h-26q-42 0 -54 62v4q0 9 10 43q0 160 -149 328q-126 111 -222 146v14q0 16 62 18q135 0 258 -98v4
q-47 101 -47 189v26q0 157 153 280zM364 743q0 -46 62 -58h4q54 0 62 69q0 44 -59 54h-11q-49 0 -58 -61v-4zM382 539q8 -47 44 -47q47 0 47 54q-15 37 -43 37h-4q-44 -9 -44 -44z" />
    <glyph glyph-name="I" unicode="I" horiz-adv-x="2162" 
d="M671 1030h57q262 -45 262 -256q0 -78 -74 -165q87 -34 142 -34q148 18 148 40q-74 66 -74 176q0 157 211 233q31 6 51 6h57q205 0 370 -245q74 -137 74 -210h63q34 34 74 34q91 -16 91 -80v-28q0 -64 -91 -80q-40 0 -74 34h-57q-9 0 -29 -108q-90 -227 -290 -319
q-79 -28 -131 -28h-57q-262 45 -262 256q0 78 74 165q-86 34 -142 34q-148 -18 -148 -40q74 -66 74 -176q0 -157 -210 -233q-31 -6 -52 -6h-57q-205 0 -369 245q-62 105 -74 210h-63q-34 -34 -74 -34q-91 16 -91 80v28q0 64 91 80q40 0 74 -34h57q9 0 28 108q91 227 291 319
q79 28 130 28zM324 575h325v5q-37 0 -51 86v5q17 109 91 109l5 -12q-45 -43 -45 -68q0 -47 68 -63q85 19 85 103v5q0 113 -176 131q-186 0 -290 -250zM1320 745v-5q0 -89 91 -103h6q57 25 57 63q0 25 -46 68q0 12 17 12q80 -33 80 -109v-5q-15 -86 -51 -86v-5h324
q0 118 -159 256q-83 45 -154 45q-165 -24 -165 -131zM324 455q0 -118 160 -256q82 -45 153 -45q165 24 165 131v5q0 89 -91 103h-5q-57 -25 -57 -63q0 -25 45 -68q0 -12 -17 -12q-79 33 -79 109v5q14 86 51 86v5h-325zM1474 455v-5q36 0 51 -86v-5q-18 -109 -91 -109l-6 12
q46 43 46 68q0 47 -68 63q-86 -19 -86 -103v-5q0 -113 177 -131q186 0 290 250l11 51h-324z" />
    <glyph glyph-name="J" unicode="J" horiz-adv-x="353" 
d="M168 1016h4q30 0 30 -38v-46l-3 -8q38 -14 38 -57v-4q0 -28 -31 -57q131 -213 134 -237v-23q-88 -270 -88 -405q-52 -141 -76 -141h-8q-28 0 -61 95q-18 24 -42 230q-27 101 -65 221v23q4 24 134 241q-31 19 -31 53v4q10 57 38 57l-3 8v46q0 38 30 38zM138 722l-88 -164
q88 -260 88 -348h3v512h-3zM199 722v-512h3q0 88 88 348l-88 164h-3z" />
    <glyph glyph-name="K" unicode="K" horiz-adv-x="1576" 
d="M779 1025h5q98 -110 98 -225q67 41 117 41q2 -11 11 -11q0 -134 -149 -220q0 -41 -77 -144h-5q-37 31 -82 149q-42 0 -113 108q-20 39 -30 107q12 11 20 11q35 0 108 -41q0 115 97 225zM420 666q217 0 328 -251h5q18 0 26 5l31 -5h5q109 251 333 251q132 0 292 -143
q6 0 16 -5q9 5 15 5v10q-21 53 -21 62q17 35 52 35q61 -28 61 -76v-26q-16 -92 -92 -92h-5q-30 0 -57 20v-5q11 -55 11 -97q0 -157 -123 -205q-19 -11 -41 -11q-28 0 -159 41q-31 -1 -57 -46q-20 6 -20 52q19 123 143 123q118 27 118 112v11l-5 51h-5q0 -64 -82 -72
q-61 10 -61 46q0 32 61 62q10 16 10 25q0 30 -87 46q-144 0 -236 -220v-5q11 -33 11 -46v-16q0 -28 -26 -66q0 -51 67 -200v-15q0 -9 -21 -21h-20q-70 11 -98 205h-15v-5q-34 -200 -97 -200h-21q-8 0 -20 21v15q66 149 66 200q-25 38 -25 66v16q0 10 10 51q-52 140 -149 195
q-41 18 -82 25q-76 0 -92 -51q0 -12 67 -61l5 -26q-17 -41 -67 -41q-77 10 -77 72h-5l-5 -51v-11q0 -103 190 -128q71 -35 71 -118q-5 -41 -20 -41q-26 43 -51 46q-143 -41 -164 -41q-154 38 -154 154q-9 0 -10 72q0 22 10 92q-27 -20 -57 -20h-5q-92 15 -92 92v26
q21 76 67 76q46 -13 46 -41l-21 -56v-10q6 0 16 -5q12 0 133 97q103 51 179 51z" />
    <glyph glyph-name="L" unicode="L" horiz-adv-x="1102" 
d="M102 1025h19q46 -6 46 -42v-14q-60 -162 -60 -320q0 -383 361 -542q76 -19 107 -19h60q167 0 311 176q23 51 23 88v14q0 62 -37 84h-9q-25 0 -74 -65l-23 -5h-5q-42 0 -46 56v23q13 88 83 88q9 -4 14 -4h5v4q-35 14 -89 23q-120 0 -171 -204q-56 -74 -111 -74h-14
q-42 0 -75 33q61 17 61 60q4 0 4 19q0 26 -27 143q0 128 153 186q46 9 83 9q81 0 172 -32q-19 38 -19 69q0 83 111 107h14q102 -21 102 -70v-46q-16 -28 -46 -28q-56 33 -65 33h-14l-4 -24q0 -9 83 -153q32 -53 46 -185q0 -287 -347 -399q-56 -14 -103 -14h-55
q-230 0 -427 227q-139 185 -139 404v60q31 334 102 334z" />
    <glyph glyph-name="M" unicode="M" horiz-adv-x="1111" 
d="M458 1021h60q244 0 451 -186q119 -145 119 -295v-41q0 -215 -212 -391q-174 -108 -302 -108h-134q-159 0 -373 179q-16 16 -67 78q12 8 22 8h53q199 -209 443 -209q273 0 440 231q48 86 48 168v22q0 194 -190 250q-14 3 -34 3h-29q-218 0 -354 -205l-45 82
q-93 108 -227 108h-4q-7 0 -7 8q96 56 130 149q11 38 22 119q117 30 190 30zM313 771q49 -26 97 -74q153 138 369 138l26 -4h4v4q-153 85 -313 85h-12q-126 0 -126 -18q-12 -69 -45 -131z" />
    <glyph glyph-name="N" unicode="N" horiz-adv-x="2352" 
d="M633 1017h68q274 0 434 -329q27 -105 37 -105q0 260 155 260q93 -26 93 -93v-24q0 -85 -118 -112q-6 -11 -6 -25v-6q81 -8 81 -68v-19q-13 -68 -68 -68q77 -230 279 -230q167 0 210 168v31q0 64 -86 87v18q0 93 111 93v7q0 109 -149 161q-93 4 -93 37v19q0 76 168 99h37
q196 0 335 -192q43 -70 50 -131h31q73 0 136 -93v-55q0 -23 -87 -31q-74 -58 -142 -199q-187 -217 -360 -217h-143q-167 0 -328 198q-78 120 -100 230h-6q0 -261 -155 -261q-93 27 -93 93v25q0 85 118 112q6 11 6 25v6q-81 7 -81 68v19q13 68 69 68q-77 229 -279 229
q-167 0 -211 -167v-31q0 -64 87 -87v-18q0 -93 -112 -93v-7q0 -109 149 -161q93 -4 93 -37v-19q0 -76 -168 -99h-37q-196 0 -335 192q-43 70 -49 131h-31q-96 0 -143 117v25q0 27 93 37q74 58 143 199q187 223 397 223zM347 695q0 -142 -118 -186l-62 -7q-46 0 -111 31v-12
q0 -30 118 -62h31q111 0 167 93h19q43 -93 105 -93h25q34 0 56 37h-50q-69 0 -167 192zM1767 515h50q69 0 168 -193l12 -6q0 142 118 186l62 7q46 0 111 -31v12q0 30 -117 62h-31q-112 0 -168 -93h-18q-44 93 -106 93h-25q-34 0 -56 -37z" />
    <glyph glyph-name="O" unicode="O" horiz-adv-x="1171" 
d="M591 1020h46q290 0 529 -258v-33q-2 -9 -21 -17q-19 0 -121 104q-201 146 -416 146q-324 0 -504 -313q-50 -113 -50 -204q0 -214 208 -341q89 -46 158 -46h50q116 0 209 100v4h-21q-216 0 -292 209q-8 52 -8 62q0 130 137 175q23 4 38 4h29q148 0 225 -187q12 -53 12 -92
v-37q134 -9 134 -21q-72 -61 -171 -100q-116 -175 -296 -175h-37q-206 0 -358 208q-71 111 -71 221v41q0 255 275 458q163 92 316 92zM475 487q0 -69 133 -141q96 -38 137 -38v21q0 162 -129 221q-31 8 -58 8q-83 0 -83 -71z" />
    <glyph glyph-name="P" unicode="P" horiz-adv-x="1353" 
d="M96 1052v-4q-48 -155 -48 -272q0 -319 248 -560q200 -168 404 -168h52q238 0 432 212q108 136 108 296q0 222 -212 360q-71 32 -132 32q-155 0 -224 -140l-8 -48q0 -45 56 -88h16q57 60 96 60h20q75 0 120 -120q4 -15 4 -32v-36q0 -135 -184 -200q-64 -16 -116 -16
q-109 0 -172 44v4q84 27 84 84q-36 77 -36 128q11 92 64 92h20v4q-20 32 -20 68v16q0 123 160 208q55 20 108 20h32q187 0 328 -240q40 -96 40 -148v-112q0 -162 -192 -352q-184 -144 -388 -144h-40q-304 0 -548 276q-168 243 -168 476v52q0 117 48 248h48z" />
    <glyph glyph-name="Q" unicode="Q" horiz-adv-x="1353" 
d="M393 1025h12q253 0 451 -219q98 -124 173 -389q53 -132 112 -132q34 0 91 58l24 4h13q26 0 49 -33v-49q0 -65 -148 -96q-137 0 -224 153q-12 32 -12 46h-4q-13 -98 -149 -240q-155 -128 -302 -128h-41q-207 0 -347 215q-62 116 -62 236l21 181v21q0 36 -46 79q-4 7 -4 16
v8q9 50 99 50q49 0 99 -41q83 78 186 78h38q178 0 285 -157q12 -32 12 -58q-4 -49 -41 -49q-14 0 -91 45l-41 4q-84 0 -120 -54q41 -32 41 -61v-21q0 -26 -33 -50h-4q-13 10 -33 17q-87 0 -104 -128q0 -135 170 -195q38 -8 66 -8q158 0 273 203q25 65 25 95
q-94 -79 -199 -79q-149 23 -149 79v4q2 33 34 33q72 -4 90 -4q170 30 170 169q4 0 4 13q0 170 -215 268q-65 21 -186 37q-16 18 -16 34v12q0 33 33 33zM50 752v-4q74 0 136 -91q17 -30 17 -66q0 -57 -46 -107h12l153 49h21q40 0 74 -41l5 8v4q0 59 -75 70h-20q-36 0 -67 -16
l-4 8v17q0 123 -132 177q-22 0 -37 5q-37 -5 -37 -13z" />
    <glyph glyph-name="R" unicode="R" horiz-adv-x="1418" 
d="M454 1012h27q209 0 337 -221q36 -78 36 -157v-9q0 -226 -238 -310q-36 -9 -76 -9q-124 0 -207 121q-32 53 -32 104v13q0 135 149 171h22q104 -23 104 -99v-9q0 -64 -95 -76q-59 0 -76 85q-27 -21 -27 -67q0 -121 130 -162l45 -5q153 0 220 189q5 31 5 50v22
q0 170 -189 265q-59 27 -130 27q-232 0 -360 -251q-23 -81 -23 -144q0 -263 257 -410q121 -54 225 -54h58q253 0 499 266q112 131 167 306q-113 14 -113 98v23q0 76 108 99q108 -21 108 -104v-80q0 -147 -256 -455q-272 -229 -486 -229h-130q-155 0 -347 153
q-166 183 -166 364v36q0 246 270 414q105 45 184 45z" />
    <glyph glyph-name="S" unicode="S" horiz-adv-x="1325" 
d="M865 1020h26q206 0 353 -219q64 -116 64 -220v-39q0 -250 -249 -439q-164 -103 -276 -103h-133q-205 0 -439 207q-211 234 -211 499v77l4 9q91 -7 91 -17v-52q0 -340 318 -551q137 -82 293 -82h17q243 0 413 224q78 114 78 250q0 222 -228 344q-60 22 -112 22
q-129 0 -151 -86v-13q34 -111 34 -121q0 -39 -107 -52q-17 -18 -17 -34q7 -47 43 -47h8q71 34 82 34q43 -7 43 -39q-38 -63 -43 -81q7 -39 39 -39q35 0 60 90l13 9q53 -47 73 -47q30 8 30 55q-14 56 -56 56h-34v5q24 34 64 34h5q90 -18 90 -90v-35q-32 -202 -249 -202
q-223 0 -293 237q-9 15 -13 86q0 178 172 310q97 60 198 60z" />
    <glyph glyph-name="T" unicode="T" horiz-adv-x="1027" 
d="M484 1012h44q209 0 376 -192q108 -142 108 -292v-44q0 -241 -244 -416q-132 -68 -232 -68h-56q-210 0 -380 200q-100 142 -100 284v44q0 223 212 392q138 92 272 92zM340 716q0 -107 120 -148h40q38 0 64 36q-36 34 -36 64v12q0 46 68 64h12q64 0 76 -92q0 -83 -116 -152
q-41 -20 -76 -20h-28q-136 0 -204 172q-8 38 -8 60q0 92 52 172h-4q-224 -138 -224 -368v-20q0 -260 280 -396q80 -24 132 -24h40q197 0 340 196q68 106 68 224v20q0 246 -248 380q-72 36 -144 36q-145 0 -200 -180z" />
    <glyph glyph-name="U" unicode="U" horiz-adv-x="2612" 
d="M397 1025h53q167 0 214 -148v-36q0 -118 -119 -154h-47q-99 0 -143 131h-5q-160 -58 -160 -214v-29q0 -219 260 -308q96 -12 113 -12q228 0 740 355q495 332 723 332h30q329 0 492 -302q41 -101 41 -190v-35q0 -305 -332 -415h-166q-166 37 -166 166v12q0 118 119 154h47
q97 0 143 -131h5q160 58 160 214v29q0 219 -260 308q-96 12 -113 12q-228 0 -705 -332q-518 -355 -764 -355h-18q-358 0 -509 332q-30 82 -30 160v35q0 305 332 415q40 6 65 6z" />
    <glyph glyph-name="V" unicode="V" horiz-adv-x="2347" 
d="M292 28q-292 151 -292 417v37q0 168 144 338q206 199 393 199h139q246 0 644 -440q264 -310 509 -310q98 9 134 27q195 102 195 278q0 129 -111 195q-61 -93 -135 -93h-9q-153 18 -153 148v5q28 166 199 166q57 0 158 -37q222 -115 222 -351v-42q0 -61 -23 -134
q-131 -338 -468 -338q-295 0 -602 328q-359 436 -611 436h-18q-86 0 -176 -37q-255 -143 -255 -357l9 -65q74 -222 246 -222q40 0 101 23q-27 46 -27 83q29 153 139 153h9q157 -22 157 -153v-4q0 -24 -9 -56q-117 -222 -338 -222h-37q-44 0 -134 28z" />
    <glyph glyph-name="W" unicode="W" horiz-adv-x="1116" 
d="M622 1025h63q201 0 380 -107q36 -42 36 -77v-22q0 -77 -107 -112h-18q-112 26 -112 108q0 62 -179 94h-58q-356 0 -493 -287q-27 -68 -27 -134v-14q0 -146 184 -170l9 5h18q40 0 152 45q9 -11 9 -18q-66 -139 -193 -139h-67v-5q99 -94 211 -94h27q146 0 201 148
q4 25 4 49q-29 144 -120 144h-9q-45 0 -54 -41q-63 16 -63 59v35l5 9l-9 5h-36q-82 0 -130 -126l-22 -4q-48 0 -58 94q0 144 170 255q68 27 116 27h14l22 -5q0 79 121 103q27 -10 27 -31q-5 -40 -5 -49q0 -37 143 -175q72 -91 72 -201v-18q0 -210 -219 -331
q-88 -45 -179 -45h-36q-138 0 -287 143q-125 146 -125 318v36q0 312 336 470q153 58 286 58z" />
    <glyph glyph-name="X" unicode="X" horiz-adv-x="1395" 
d="M902 1020h42q247 0 385 -287q35 -93 35 -168v-34q0 -252 -260 -443q-157 -88 -271 -88h-126q-213 0 -489 202q-173 156 -218 245q0 18 50 149h11q151 -311 504 -447q131 -34 203 -34q251 0 412 229q62 94 62 198v4q0 121 -88 218l4 -19q0 -168 -176 -225q-37 -8 -58 -8
q-142 0 -210 157q-11 39 -11 80q0 31 15 84h-4q-104 0 -263 -161l-4 8q9 76 141 214q161 126 314 126z" />
    <glyph glyph-name="Y" unicode="Y" horiz-adv-x="1157" 
d="M760 1025h166v-66q-244 0 -265 -100q496 -67 496 -495q-66 -364 -331 -364h-99q-231 0 -231 231v33q33 100 198 100l132 -199q166 54 166 199q0 310 -430 330q-364 -126 -364 -529q0 -132 -66 -132q-132 132 -132 198q174 794 760 794z" />
    <glyph glyph-name="Z" unicode="Z" horiz-adv-x="855" 
d="M405 1034h11q16 0 79 -137q69 -116 69 -206v-22q0 -20 -14 -116v-11q82 26 104 26q118 0 156 -116q3 -14 3 -29v-18q0 -113 -122 -145h-8q-32 5 -32 33v25l3 22q0 51 -65 61h-7q-50 0 -65 -68q18 -39 18 -55q-22 -56 -22 -65v-7q0 -6 15 -14h29q11 4 36 50h4
q39 -24 39 -65v-22q0 -71 -101 -83h-22q-13 -8 -43 -61l-14 -11h-102q-4 0 -50 72h-22q-108 14 -108 94q20 76 39 76h4q12 -7 32 -47q24 -7 26 -7q22 7 25 18v15q-22 50 -22 65q18 46 18 54q-20 61 -65 61h-7q-65 -12 -65 -58l4 -18v-32q0 -29 -36 -33q-98 0 -127 138v25
q0 99 112 137q20 8 51 8q18 0 101 -26l4 15q-19 58 -22 115q0 97 123 329q13 33 36 33z" />
    <glyph glyph-name="bracketleft" unicode="[" horiz-adv-x="990" 
d="M303 1025h33q212 0 328 -248q29 -94 29 -164q0 -85 -36 -172h11q190 0 299 -178q22 -56 22 -95v-26q0 -107 -77 -127h-7q-61 0 -70 76q15 40 15 51v26q0 72 -120 124q-24 11 -59 11h-18q-136 0 -208 -172q-7 -38 -7 -58q0 -37 11 -69l-8 -4h-124q-7 0 -7 11q0 23 -4 55
q0 184 165 328q94 95 94 204v18q0 171 -149 259q-31 15 -91 22q-129 0 -186 -138q-8 -15 -8 -40v-22q0 -42 62 -91l8 -26v-15q-17 -58 -55 -58h-7q-86 0 -135 157q-4 13 -4 33v22q0 182 204 284q55 22 99 22z" />
    <glyph glyph-name="backslash" unicode="\" horiz-adv-x="976" 
d="M476 1076h8q216 -246 216 -544h4q14 81 80 156q70 56 140 56h4q16 0 28 -132v-132q0 -157 -136 -328q-146 -152 -324 -152h-32q-249 0 -400 264q-64 133 -64 248v68q0 74 28 164h8q156 0 220 -204v-8h4q0 298 216 544zM348 244q0 -105 112 -132h36q112 26 112 112l4 20
q0 108 -132 128q-132 -20 -132 -128z" />
    <glyph glyph-name="bracketright" unicode="]" horiz-adv-x="1116" 
d="M750 1012h23q201 0 293 -204q12 -35 12 -58v-85q0 -70 -85 -140q-44 -27 -93 -27h-7q-109 0 -128 93q0 27 100 27q74 28 74 101v4q0 104 -131 146q-27 4 -43 4h-27q-134 0 -201 -170q-12 -41 -12 -69v-8q0 -83 70 -213q35 -88 35 -166v-11q0 -130 -81 -236h-224v8
q162 97 162 232v19q0 130 -147 205q-27 7 -46 7h-8q-113 0 -143 -116q0 -47 81 -119v-20q-18 -31 -69 -31q-120 0 -155 170v39q0 147 182 220q41 12 96 16q48 -4 101 -16v4q0 210 201 348q89 46 170 46z" />
    <glyph glyph-name="asciicircum" unicode="^" horiz-adv-x="1204" 
d="M821 1025l100 -55v-5q-2 -5 -160 -74q-258 -166 -258 -398v-10q0 -270 243 -379q57 -9 80 -9h40q172 0 239 179q5 53 10 64q-23 189 -165 189q-103 0 -139 -99v-30l20 -55v-10q-7 -44 -45 -44h-5q-56 0 -74 119q0 156 204 219h44q177 0 249 -209v-134q0 -98 -139 -224
q-112 -60 -194 -60h-60q-232 0 -373 279q-35 116 -35 184v54h-5q-81 -44 -154 -44q-173 0 -239 179q-5 27 -5 45v24q22 190 189 190q60 0 75 -45q0 -55 -120 -55q-54 -44 -54 -104q0 -122 159 -145q142 0 214 169q127 207 358 294z" />
    <glyph glyph-name="underscore" unicode="_" horiz-adv-x="1278" 
d="M726 1016h64q244 0 431 -124q34 -39 34 -60v-64q-22 -102 -124 -102h-17q-102 0 -124 141q-126 64 -256 64h-47q-291 0 -486 -226q-73 -120 -73 -239q0 -163 154 -218q16 -9 47 -9h30q59 0 183 56q6 0 13 -13v-4q-62 -167 -248 -167h-38q-16 -51 -64 -51h-17
q-83 0 -150 175q-38 100 -38 188v47q0 246 218 435q228 171 508 171z" />
    <glyph glyph-name="grave" unicode="`" horiz-adv-x="1290" 
d="M432 996h24q169 0 268 -212q20 -60 20 -72h4q42 164 132 228q87 56 156 56h24q152 0 216 -176v-88q0 -96 -144 -148h-24q-72 10 -72 72q12 76 76 76q24 0 56 -28q24 31 24 56v24q0 83 -116 124h-40q-147 0 -212 -224q-5 -41 -8 -48q84 -45 84 -128v-20q0 -83 -84 -128
q0 -98 92 -216q68 -56 128 -56h20q97 0 136 112v36q0 34 -28 56q0 -17 -56 -28q-58 0 -72 76q10 72 72 72h20q70 0 140 -108q8 -32 8 -40v-68q0 -122 -168 -192l-48 -4h-24q-169 0 -268 212q-20 61 -20 72h-4q-42 -164 -132 -228q-87 -56 -156 -56h-24q-152 0 -216 176
q-4 22 -4 36v28q0 119 144 172h28q72 -10 72 -72q-12 -76 -76 -76q-24 0 -56 28q-24 -31 -24 -56v-24q0 -83 116 -124h40q145 0 212 220q4 46 8 52q-84 45 -84 128v20q0 82 84 128q0 98 -92 216q-68 56 -128 56h-20q-94 0 -136 -108v-40q0 -33 28 -56q0 17 56 28
q58 0 72 -76q-10 -72 -72 -72h-20q-70 0 -136 104q-16 37 -16 68v28q0 138 172 208z" />
    <glyph glyph-name="a" unicode="a" horiz-adv-x="922" 
d="M605 1020q37 -8 37 -37q-7 -46 -7 -58q0 -51 158 -191q102 -125 102 -261v-33q0 -197 -198 -356q-128 -84 -224 -84h-117q-144 0 -319 154q-37 45 -37 62v11q4 11 22 11q21 0 165 -91q118 -48 198 -48h15q175 0 264 173q11 38 11 58v11q0 118 -114 176q-16 8 -47 8
q-59 -7 -59 -48h-4q-77 18 -77 77v15q4 22 4 33q-28 7 -51 7q-94 0 -133 -106q-14 -52 -47 -52q-60 0 -70 107v3q0 169 187 301q82 41 169 41q26 -4 29 -4q0 78 125 121h18z" />
    <glyph glyph-name="b" unicode="b" horiz-adv-x="1264" 
d="M485 1019h40q253 0 419 -245q75 -133 75 -232h218q9 -1 9 -9v-35q0 -8 -9 -8h-262q-20 0 -26 113q-44 164 -162 258q-127 96 -275 96h-5q-280 0 -420 -288q-26 -86 -26 -166q0 -212 206 -367q106 -70 196 -70h49q105 0 148 83q13 28 13 70q0 71 -65 139l8 5
q75 -21 114 -83q18 -52 18 -88q56 64 56 149v22q0 168 -179 249l-39 4q-93 0 -123 -109q13 -70 62 -70v-13q-32 -13 -40 -13q-15 0 -39 13q0 -74 -44 -74q0 4 -4 4q9 16 9 35v9q0 9 -9 9q-13 -70 -66 -70q-48 36 -48 83v8h-4q-14 0 -22 -43h-4q-12 0 -18 35v26l4 22
q-65 12 -65 57v4q3 26 13 26q18 -35 39 -35q38 0 158 114q83 57 170 57q211 0 306 -245q9 -30 9 -53q15 0 18 70v9q0 35 -18 92h13q53 -86 53 -153v-26q0 -183 -241 -333q-102 -52 -192 -52h-31q-212 0 -385 227q-87 136 -87 271v31q0 277 289 442q109 48 196 48z" />
    <glyph glyph-name="c" unicode="c" horiz-adv-x="841" 
d="M404 1308h8q62 -55 88 -160q58 28 96 28q120 0 156 -124q4 -35 4 -44q0 -99 -84 -232l40 8q100 -14 100 -84v-60q0 -50 -116 -172q80 0 108 -56q8 -26 8 -36v-8q0 -111 -192 -144h-16v-68q-5 -36 -36 -36h-40q-16 -120 -104 -120h-32q-88 0 -104 120h-40q-36 5 -36 36v68
h-4q-142 0 -200 116l-4 28v8q0 80 108 92h8q-120 120 -120 196v24q0 79 100 96q5 0 44 -8q-84 132 -84 236q0 122 120 160q33 0 36 4q43 0 100 -28q26 105 88 160zM128 1008q0 -108 156 -352q56 -103 56 -128h4q8 60 8 88q0 52 -48 308q0 7 -4 72q4 60 4 88q-39 24 -76 24
h-16q-72 0 -84 -100zM512 1080q0 -24 4 -84q0 -81 -48 -320q-4 -41 -4 -64q0 -24 8 -84h4q0 41 180 344q32 94 32 140q-15 96 -84 96h-16q-48 0 -76 -28zM64 660q0 -75 212 -252q0 12 24 40q-67 268 -176 268h-8q-52 0 -52 -56zM516 452q24 -37 24 -44q212 173 212 260
q0 42 -52 48h-8q-107 0 -176 -264zM72 364v-4q0 -59 148 -84h20v40q0 17 8 32q-61 60 -104 60h-16q-56 -8 -56 -44zM568 348q8 -15 8 -32v-40h12q112 0 156 80v8q0 36 -56 44h-16q-43 0 -104 -60z" />
    <glyph glyph-name="d" unicode="d" horiz-adv-x="748" 
d="M359 1429h9q115 -107 115 -222v-22q0 -43 -25 -111q28 13 60 13h30q127 0 179 -154v-47q-3 -56 -17 -56h-8q-70 68 -133 68q-127 0 -163 -209v-17q0 -43 22 -103q57 51 120 51h4q146 0 171 -196v-13q0 -184 -231 -295q-86 -21 -86 -26v-81q0 -9 -8 -9h-69q-8 0 -8 9v81
q0 7 -90 26q-227 116 -227 295v13q26 196 171 196h5q63 0 119 -51q22 57 22 111q0 148 -124 210q-20 8 -43 8q-58 0 -128 -68h-9q-14 0 -17 56v25q0 124 158 176h52q31 0 60 -13v8q-26 48 -26 103v22q0 115 115 222zM116 381v-17q0 -130 179 -197l26 -4v218q-29 -30 -60 -30
h-9q-72 10 -72 64h13q22 -30 42 -30q35 0 43 47q0 48 -73 60q-89 -15 -89 -111zM449 424q15 -39 47 -39q15 0 39 30h13v-4q0 -47 -73 -60h-9q-31 0 -60 30v-218h5q89 0 184 128q17 43 17 73v17q0 96 -90 111q-73 -8 -73 -68z" />
    <glyph glyph-name="e" unicode="e" horiz-adv-x="1037" 
d="M498 1453h4q181 -146 181 -339q0 -113 -67 -258q172 131 312 131q59 0 72 -27v-9l-144 -77q-295 -203 -295 -530q0 -120 50 -272h5q84 0 126 -63v-9h-484v9q42 63 127 63h4q50 150 50 277q0 403 -439 597v14q14 27 72 27q141 0 313 -131v4q-68 134 -68 254q0 193 181 339
z" />
    <glyph glyph-name="f" unicode="f" horiz-adv-x="2217" 
d="M1086 1018q47 0 47 -79q43 0 67 -93q0 -33 -62 -141v-26q19 -43 182 -94v-6q-167 -61 -167 -172v-47q6 -73 21 -73q120 261 402 261q46 0 115 -16v-10q-162 0 -245 -120v-11q138 68 287 68q240 0 433 -193v-5l-5 -10q-166 62 -319 62q-340 0 -568 -313h-376
q-226 313 -574 313q-139 0 -319 -62l-5 10q194 198 444 198q143 0 281 -68v11q-83 120 -245 120v10q69 16 125 16q269 0 392 -261q16 0 21 73v47q0 112 -162 167l-5 11q163 51 182 94v20q0 12 -52 105l-10 36q0 63 73 110q0 68 42 68z" />
    <glyph glyph-name="g" unicode="g" horiz-adv-x="1859" 
d="M153 1015h13q128 0 153 -158q0 -48 -39 -113v-5q100 -141 227 -271q355 -332 661 -332h52q277 0 460 214q52 92 52 162v30q0 199 -166 280q-36 18 -88 18q-161 -14 -161 -92v-18q0 -69 131 -87q84 0 96 -57v-9q0 -94 -175 -126h-17q-189 0 -250 188q-4 23 -4 43v27
q0 137 175 245q81 43 170 43h9q218 0 355 -218q52 -101 52 -197v-35q0 -278 -302 -464q-183 -83 -302 -83h-161q-206 0 -530 192q-370 257 -547 587q-17 43 -17 74v13q0 98 118 144q17 5 35 5z" />
    <glyph glyph-name="h" unicode="h" horiz-adv-x="1892" 
d="M1477 1020h18q231 0 360 -268q23 -86 23 -124v-46q0 -272 -263 -485q-161 -97 -267 -97h-120q-246 0 -660 365q-156 152 -208 152h-28q-106 -28 -143 -28q-132 0 -184 148q-5 18 -5 37v23q0 138 171 180h27q125 0 384 -305q310 -319 396 -350q139 -102 305 -102
q291 0 457 272q46 103 46 199v32q0 199 -226 277q-24 5 -46 5h-23q-65 0 -79 -56v-14q0 -43 166 -78q107 -51 107 -148q-15 -111 -107 -111q-48 10 -50 10v-10q-10 -129 -106 -129q-76 0 -116 97h-4q-48 -37 -74 -37h-37q-62 0 -83 93v27q0 24 18 60q-101 36 -101 111
q25 106 101 106q-18 37 -18 60v23q0 76 101 97q32 0 93 -37q82 51 175 51z" />
    <glyph glyph-name="i" unicode="i" horiz-adv-x="1831" 
d="M808 1020h53q386 0 706 -367q213 -288 213 -440v-6q0 -42 -59 -53q-74 0 -74 138q-66 248 -239 393q-258 245 -542 245h-58q-377 0 -622 -330q-96 -148 -96 -287v-31q20 -197 138 -197h32q85 0 176 74q0 177 196 330q142 79 255 79q88 0 101 -26q0 -169 -170 -345
q-106 -90 -356 -128q-100 -69 -175 -69h-90q-105 0 -176 165q-21 49 -21 122v37q0 293 335 553q245 143 473 143z" />
    <glyph glyph-name="j" unicode="j" horiz-adv-x="953" 
d="M463 1434q169 -131 169 -321q0 -104 -62 -236q168 125 285 125q67 -9 67 -22v-14q-2 -7 -120 -66q-281 -189 -281 -490v-49q0 -29 27 -54v-13q0 -36 -40 -36v-249q0 -9 -9 -9h-76q-9 0 -9 9v249q-35 0 -35 36v13q26 25 26 54v49q0 360 -378 539q-27 10 -27 17v9
q0 18 71 27q117 0 285 -125v5q-62 118 -62 240q0 178 169 312z" />
    <glyph glyph-name="k" unicode="k" horiz-adv-x="2371" 
d="M639 1023h46q197 0 348 -189q88 -134 88 -232l9 -5h97q7 0 28 107q75 190 236 273q92 46 181 46h46q250 0 361 -282q9 -44 14 -83q0 -219 -213 -306q-46 -9 -83 -9q-153 0 -213 166q-10 18 -10 51q0 70 93 84q73 0 93 -107q24 -18 41 -18h5q83 0 106 115v28
q0 131 -176 185l-46 5q-195 0 -287 -255q125 0 125 -88t-116 -88q57 -143 199 -217q102 -47 190 -47q71 0 204 47h5q61 0 78 -88v-9q0 -85 -180 -107h-181q-174 0 -375 190q-89 112 -111 231h-125q-52 -202 -176 -291q-174 -130 -310 -130h-144q-204 21 -204 65
q-10 0 -13 42v9q16 88 83 88q133 -47 204 -47h4q245 0 380 250q0 5 5 14q-116 0 -116 88t125 88q-92 255 -287 255q-157 0 -218 -153q-4 -18 -4 -37v-28q23 -115 106 -115h5q48 0 60 83q27 34 69 42h10q88 -17 88 -84q0 -153 -181 -213q-32 -4 -51 -4q-215 0 -282 259
q0 34 -5 51q0 220 255 352q69 18 120 18zM139 458q50 0 116 -106l4 -23q0 -58 -111 -125l-23 -5q-51 0 -125 107v37q0 48 107 115h32zM2241 458q49 0 116 -106v-32q0 -51 -107 -116q-10 0 -18 -5q-63 0 -130 111l-4 23q0 51 106 125h37z" />
    <glyph glyph-name="l" unicode="l" horiz-adv-x="1436" 
d="M692 1388h4q64 -17 64 -140v-36q0 -121 -64 -300h-4q-64 179 -64 300v36q0 123 64 140zM492 1208q75 0 140 -228q12 -35 12 -60h-4q-176 154 -176 244v16q0 28 28 28zM896 1208q28 0 28 -36v-8q0 -90 -176 -244h-4v4q26 162 108 264q32 20 44 20zM332 1124h8q51 0 64 -72
q-8 -25 -8 -32l236 -232q27 16 48 16h28q15 0 52 -16l232 236q-8 26 -8 32q16 68 64 68h8q68 -9 68 -68v-8q0 -51 -72 -64q-25 8 -32 8l-232 -236q16 -27 16 -48v-28q0 -15 -16 -52l236 -232q26 8 32 8q68 -16 68 -64v-8q-9 -68 -68 -68h-8q-51 0 -64 72q8 26 8 32l-236 232
q-27 -16 -48 -16h-28q-15 0 -52 16l-232 -236q8 -25 8 -32q-16 -68 -64 -68h-8q-68 9 -68 68v8q0 51 72 64q26 -8 32 -8l232 236q-16 27 -16 48v28q0 15 16 52l-236 232q-25 -8 -32 -8q-68 16 -68 64v8q9 68 68 68zM208 924h16q90 0 244 -176v-4h-4q-162 26 -264 108
q-20 32 -20 44q0 28 28 28zM1164 924h16q28 0 28 -28q0 -75 -228 -140q-35 -12 -60 -12v4q154 176 244 176zM620 704v-20q18 -64 64 -64h20q64 18 64 64v20q-18 64 -64 64h-20q-64 -18 -64 -64zM140 760h36q121 0 300 -64v-4q-179 -64 -300 -64h-36q-123 0 -140 64v4
q17 64 140 64zM1212 760h36q101 0 136 -48v-36q-36 -48 -136 -48h-36q-121 0 -300 64v4q179 64 300 64zM692 728h4q32 0 32 -32v-4q0 -32 -32 -32h-4q-32 0 -32 32v4q0 32 32 32zM468 644v-4q-154 -176 -244 -176h-8q-36 0 -36 28q0 75 228 140q35 12 60 12zM920 644h4
q162 -26 264 -108q20 -32 20 -44q0 -28 -36 -28h-8q-90 0 -244 176v4zM696 476q64 -179 64 -300v-36q0 -123 -64 -140h-4q-64 17 -64 140v36q0 121 64 300h4zM640 468h4v-4q-26 -162 -108 -264q-32 -20 -44 -20q-28 0 -28 36v8q0 90 176 244zM744 468h4q176 -154 176 -244
v-8q0 -36 -28 -36q-75 0 -140 228q-12 35 -12 60z" />
    <glyph glyph-name="m" unicode="m" horiz-adv-x="1569" 
d="M793 1422h18q166 0 221 -347q8 -89 8 -130q0 -385 -229 -945h-5q-10 0 -82 204q-152 429 -152 745q0 342 169 460q39 13 52 13zM87 884q175 0 381 -373q87 -179 152 -429l13 -65h-9q-153 95 -425 373q-199 239 -199 373v34q17 87 87 87zM1526 884q82 -19 82 -69v-74
q0 -159 -325 -485q-163 -146 -295 -239h-8q54 243 121 399q68 162 178 308q144 160 247 160z" />
    <glyph glyph-name="n" unicode="n" horiz-adv-x="1906" 
d="M1608 988h20q127 0 252 -188q12 -26 12 -36v-20q0 -6 -16 -12q-88 32 -120 32h-8q-98 0 -124 -164q-26 -178 -100 -284q-107 -139 -220 -200q-209 -116 -380 -116h-180q-221 0 -500 172q-207 154 -244 292v20q0 41 60 52q58 0 128 -104q166 -176 356 -176q200 14 240 120
l4 20q0 67 -148 124q-76 60 -76 112v20q0 87 124 104q108 0 248 -156q36 -62 36 -116q0 -21 -4 -68h4q83 20 128 80q32 45 48 256q30 164 156 164q68 0 132 -88q63 160 172 160z" />
    <glyph glyph-name="o" unicode="o" horiz-adv-x="1752" 
d="M1075 1384h44q287 0 484 -287q94 -163 94 -313v-45q0 -272 -233 -529q-267 -210 -537 -210h-54q-351 0 -645 318q-96 125 -156 260q-72 209 -72 309q0 29 49 40q49 0 58 -126q52 -255 197 -429q264 -278 605 -278q358 0 573 287q121 184 121 376q0 339 -327 501
q-83 32 -152 32h-40q-229 0 -350 -233q-18 -56 -18 -94v-23q0 -167 171 -224h35q19 0 94 14q36 -12 36 -45v-9q0 -45 -112 -58h-27q-199 0 -277 237q-14 33 -14 90v9q0 298 359 421q56 9 94 9z" />
    <glyph glyph-name="p" unicode="p" horiz-adv-x="1199" 
d="M928 1396h36q144 0 204 -132l4 -24v-72q0 -88 -136 -148q-22 -4 -36 -4h-20q-66 0 -92 32q8 15 8 32q-12 64 -56 64h-24q-90 0 -116 -164q-4 -14 -4 -40q0 -165 196 -268l12 -36q-10 -60 -60 -60h-8q-56 0 -56 84q-7 0 -20 8v-4q24 -67 24 -136v-40q0 -219 -204 -396
q-120 -92 -260 -92h-28q-220 0 -284 184q-8 18 -8 52v28q0 144 168 220q50 12 84 12q69 0 124 -40q-12 -21 -12 -48q0 -69 92 -84q130 0 164 216q4 12 4 56q0 214 -244 336q-24 29 -24 60q0 64 80 76q66 0 76 -84l-4 -20q33 -17 72 -48v4q-8 48 -8 76v12q0 222 212 352
q69 36 144 36z" />
    <glyph glyph-name="q" unicode="q" horiz-adv-x="2315" 
d="M1136 1403h6q24 0 163 -326q105 -288 105 -470q89 -111 228 -346q122 -150 235 -150h13q186 0 255 183v72q-33 156 -137 156h-26q-85 -21 -85 -85v-6q0 -68 91 -85l46 13l6 -13q0 -87 -143 -124h-7q-166 0 -202 209q0 181 242 254h58q204 0 287 -241q7 -25 7 -52v-59
q0 -214 -268 -320q-45 -13 -78 -13h-72q-579 124 -705 124q-142 0 -737 -124h-72q-200 0 -320 222q-26 54 -26 111v59q0 203 242 287q25 6 52 6h32q181 0 261 -209q0 -29 7 -39q-32 -215 -202 -215q-150 30 -150 130l13 7q26 -13 45 -13q74 0 85 98q0 56 -85 78h-26
q-104 0 -137 -156v-46q0 -136 189 -203q35 -6 66 -6h13q183 0 411 437q65 51 65 177q65 375 255 678zM1136 940q-137 -259 -137 -437q21 -209 130 -209h7q91 0 130 117q13 54 13 105q0 182 -137 424h-6z" />
    <glyph glyph-name="r" unicode="r" horiz-adv-x="1250" 
d="M620 1415q239 -188 239 -405v-10q0 -88 -39 -166q44 -36 44 -97q0 -80 -88 -112q29 -90 29 -176q0 -104 -54 -229h5q44 -30 161 -44q159 0 235 156q4 8 4 24v15q0 21 -58 68v34q12 59 58 59h10q55 0 68 -83v-112q0 -123 -126 -249q-110 -88 -220 -88h-49q-113 0 -214 68
h-10q-102 -68 -215 -68h-49q-208 0 -327 239q-24 86 -24 142v39q0 94 68 112h15q59 -12 59 -59v-19q0 -25 -59 -69v-29q0 -97 161 -166q23 -8 78 -14q80 0 166 48q-54 112 -54 235q0 73 30 166h-5q-83 34 -83 122q0 35 39 87q-34 91 -34 161v10q0 219 239 410zM576 620
q-20 -71 -20 -108q0 -96 64 -170q63 70 63 180q0 23 -19 98h-5l-39 -30l-39 30h-5z" />
    <glyph glyph-name="s" unicode="s" horiz-adv-x="1004" 
d="M477 1397h15q131 -120 131 -287q0 -99 -63 -239q29 0 87 5q210 0 317 -170v-20q0 -9 -15 -9q-218 0 -297 -83v-5q68 -44 68 -83v-19q0 -38 -19 -44h-5q-53 53 -92 53q-73 -13 -73 -63q8 -48 73 -48q6 0 48 4q39 -13 39 -48q0 -81 -121 -132q-5 -14 -10 -14q0 -36 102 -93
l5 -10v-77q0 -7 -15 -15h-336q-7 0 -14 15v77q6 14 83 59l24 39q-1 20 -93 63q-39 52 -39 88q0 35 39 48l59 -4q56 0 63 53q0 43 -73 58q-39 0 -92 -53h-5q-20 6 -20 44v19q0 39 68 83v5q-73 83 -311 83l-5 9q0 60 151 156q107 34 175 34q51 -5 83 -5q-63 137 -63 249
q0 154 131 277z" />
    <glyph glyph-name="t" unicode="t" horiz-adv-x="2157" 
d="M1076 1148q256 -419 256 -704v-24q0 -45 -8 -96v-4h4q187 388 444 388q213 0 324 -200q28 -56 28 -96v-100q0 -111 -136 -216q-79 -48 -148 -48h-32q-87 0 -160 64q58 74 136 156h4q31 -28 60 -28q124 25 124 160q0 112 -156 176l-60 8q-182 0 -356 -332
q-153 -252 -316 -252h-40q-176 0 -336 288q-78 143 -196 252q-77 44 -144 44q-135 0 -200 -140q-9 -15 -12 -60q0 -103 104 -140h28q28 0 52 24h4q78 -82 136 -156q-73 -64 -160 -64h-32q-159 0 -260 176q-28 59 -28 124v28q0 204 232 312q65 20 124 20q255 0 440 -380h4
q-4 40 -4 60v24q0 304 276 736h4zM1064 908q-136 -275 -136 -436v-40q19 -196 124 -196q0 -4 4 -4q104 0 140 164q4 21 4 48v48q0 156 -128 416h-8z" />
    <glyph glyph-name="u" unicode="u" horiz-adv-x="1901" 
d="M950 1411q228 -381 228 -630q0 -250 -184 -330q-37 -10 -68 -10q-139 0 -204 175q-19 45 -19 111v44q0 255 238 635zM388 529h5q284 0 489 -257q18 -24 54 -107h5q69 184 257 286q147 78 286 78h5q236 0 368 -160q19 -34 19 -59v-34q0 -95 -135 -126q-100 0 -345 122
q-58 24 -111 24h-29q-151 0 -252 -194q-31 -92 -54 -102h-24q-19 5 -68 136q-109 160 -237 160h-29q-82 0 -316 -117q-54 -20 -140 -29q-136 31 -136 126v34q0 125 276 209q53 10 112 10z" />
    <glyph glyph-name="v" unicode="v" horiz-adv-x="1766" 
d="M842 1400h36q128 0 184 -154q9 -57 9 -70q0 -177 -207 -430h-8q-207 252 -207 434q0 164 158 215q17 5 35 5zM426 869h48q223 0 386 -228q163 228 386 228h48q211 0 373 -193q53 -85 53 -154v-39q0 -137 -158 -189l-39 -4q-142 0 -198 158l-4 39q48 29 48 79
q0 83 -154 110h-39q-179 0 -250 -215q-9 -58 -9 -84q0 -181 145 -364v-4q0 -9 -13 -9q-98 18 -189 22q-81 -4 -197 -22l-5 9v4q145 181 145 369q0 233 -233 294h-61q-158 -27 -158 -106v-4q0 -45 48 -83q0 -126 -149 -185q-25 -8 -57 -8q-142 0 -193 171v61q0 174 237 303
q109 44 189 44z" />
    <glyph glyph-name="w" unicode="w" horiz-adv-x="1415" 
d="M693 1419h9q58 -66 198 -420q83 -160 137 -160v-10q0 -54 -24 -122h5q164 -31 236 -99q141 -131 141 -297v-52q-32 -259 -222 -259h-37q-97 0 -151 127q-9 19 -9 52q29 179 179 179h4v5q-40 118 -155 118h-28q-108 0 -208 -128q-47 -23 -70 -23q-68 0 -132 94
q-90 61 -170 61q-115 0 -160 -117v-10h4q128 0 175 -141q4 -25 4 -47q0 -117 -146 -170h-51q-190 0 -222 259v52q0 264 302 382l80 14q-24 66 -24 132q89 0 245 424q62 132 90 156zM693 1169q-47 -242 -99 -349l5 -33v-57q0 -32 -5 -103q84 -78 99 -127h9q18 50 99 127
q-5 63 -5 94v75q0 11 5 19q-99 280 -99 354h-9z" />
    <glyph glyph-name="x" unicode="x" horiz-adv-x="2273" 
d="M663 1350h48q343 0 614 -315q125 -161 325 -522q181 -271 406 -392q95 -44 203 -82v-29q0 -10 -10 -10h-1417q-7 0 -15 15v14q0 14 107 48q324 182 324 523q0 313 -310 459q-100 44 -198 44h-29q-252 0 -377 -261q-20 -60 -20 -102v-43q0 -155 165 -242q19 -10 53 -10h5
q111 22 111 106v15q0 34 -34 73v14q76 87 189 87h14q177 0 262 -193q9 -46 9 -73v-14q0 -266 -329 -373q-88 -14 -130 -14h-39q-357 0 -532 343q-58 121 -58 242v48q0 280 266 503q199 141 397 141z" />
    <glyph glyph-name="y" unicode="y" horiz-adv-x="1720" 
d="M849 1439h6q319 -339 319 -700h83q256 0 408 -248q39 -75 39 -144v-49q0 -176 -166 -254l-5 11v44q0 138 -171 199q-43 11 -110 16q-261 0 -392 -308l-11 -6q-139 314 -397 314q-206 0 -276 -165q-5 -30 -5 -50v-44q0 -11 -11 -11q-160 85 -160 254v49q0 193 226 331
q112 61 221 61h82q0 361 320 700zM706 640v-160q53 -44 143 -133l149 133v160q0 241 -143 380h-6q-143 -139 -143 -380zM441 215q176 0 298 -198v-17q-13 0 -127 72q-99 33 -165 33q-101 0 -188 -66h-5q-11 0 -11 11q47 165 198 165zM1263 215q134 0 187 -132q11 -22 11 -39
l-11 -5h-5q-83 66 -199 66q-124 0 -270 -105h-11v6q0 75 182 181q71 27 116 28z" />
    <glyph glyph-name="z" unicode="z" horiz-adv-x="1474" 
d="M710 1415q15 -11 54 -179q43 -116 114 -233v-6q-69 -66 -72 -66h-6q-51 42 -78 42h-23q-27 0 -78 -42h-6l-72 66v6q102 154 162 412h5zM705 943h11q51 0 66 -71q-12 -66 -66 -66h-11q-59 0 -66 72q19 65 66 65zM424 872q0 -4 60 -72v-6q-42 -45 -42 -95q0 -27 42 -78v-6
q-55 -72 -72 -72q-161 102 -406 156l-6 11q15 12 173 48q136 54 245 114h6zM1009 872q161 -102 406 -156v-11q0 -11 -167 -48q-136 -54 -245 -114h-6q0 4 -60 72v6q42 43 42 95q0 29 -42 78v6q55 72 72 72zM537 776h12q55 0 66 -71q-14 -66 -66 -66h-12q-54 0 -65 71
q13 66 65 66zM663 776h95q0 -21 24 -30q-6 -33 -6 -47l6 -30q-24 -9 -24 -30h-95q0 21 -24 30q6 33 6 47l-6 30q24 9 24 30zM872 776h12q54 0 65 -71q-13 -66 -65 -66h-12q-55 0 -66 71q14 66 66 66zM705 609h11q59 0 66 -72q-19 -65 -66 -65h-11q-51 0 -66 71q12 66 66 66z
M615 484h6q51 -42 78 -42h23q27 0 78 42h6q3 0 72 -66v-6q-102 -154 -162 -412h-6q-14 11 -53 179q-43 116 -114 233v6z" />
    <glyph glyph-name="braceleft" unicode="{" horiz-adv-x="1160" 
d="M690 1462q11 -19 50 -180l107 -230q-7 0 -73 -62q-45 45 -84 45h-6q-39 0 -84 -45q-73 61 -73 73q84 131 140 337q5 62 23 62zM690 1007q54 0 67 -74q-19 -61 -62 -61h-16q-43 0 -62 61q12 74 73 74zM262 849q156 -136 310 -157l5 -12v-61q0 -134 62 -225v438q2 11 11 11
l40 -5q22 5 39 5l6 -11v-438q62 91 62 225v61q0 14 129 45q79 34 186 124l5 -11q-17 -92 -17 -158q0 -35 28 -180q-285 -130 -376 -309v-17l17 -28v-11q-40 -49 -79 -135h-6q-39 86 -78 135v11q16 22 16 34q-46 145 -331 304q-48 0 -51 28q34 93 34 180q0 42 -17 151
q5 0 5 6zM302 731v-6q2 -11 11 -11h6l17 11q30 -34 157 -298q69 -73 79 -73h5v6q-41 56 -129 287q-69 95 -135 95q-11 -2 -11 -11zM797 360v-6h5q97 59 203 332q28 39 33 39l17 -11h6q11 0 11 11v6q0 11 -11 11q-129 0 -225 -326q-6 0 -39 -56zM302 562q0 -39 39 -39
q30 0 40 22v34q0 9 -23 23h-34q-22 -9 -22 -40zM993 579v-34q10 -22 40 -22q39 0 39 39q0 31 -22 40h-34q-9 0 -23 -23z" />
    <glyph glyph-name="bar" unicode="|" horiz-adv-x="1547" 
d="M959 1625q9 -9 51 -142q50 -130 157 -284q4 0 18 -22q-135 -118 -135 -233q0 -112 128 -157q17 0 36 -4q102 0 135 117v29q-10 55 -22 55h-7q0 -61 -84 -77q-80 16 -80 77v22q20 98 120 98h15q143 0 196 -175v-62q0 -153 -182 -237q-63 -18 -102 -18q-70 0 -171 47
q0 -3 -4 -3l4 -18q0 -160 65 -398q0 -7 -7 -7h-7q-56 40 -109 40h-30q-54 0 -120 -40h-4l-3 7q65 238 65 398v11l4 7q-7 3 -11 3q-84 -47 -164 -47q-193 0 -277 197q-7 41 -7 58v40q0 108 117 179q43 18 80 18h14q100 0 121 -98v-22q0 -62 -84 -77q-80 18 -80 77h-8
q-12 0 -22 -55v-25q29 -121 139 -121q112 0 157 128l3 36q0 110 -135 230q118 157 168 288l55 160h7zM952 1392q-55 -123 -55 -222q0 -109 55 -230h11q54 123 54 226q0 106 -54 226h-11zM952 222h11q137 0 189 -156q4 -33 4 -40q-82 -26 -168 -26h-58q-171 11 -171 29
q0 133 153 190q25 3 40 3z" />
    <glyph glyph-name="braceright" unicode="}" horiz-adv-x="1120" 
d="M614 1423h8q88 -69 88 -174v-11q61 -55 155 -55q118 0 211 122h4q12 0 22 -56v-70q0 -120 -188 -207q-59 -15 -97 -15h-11q-55 0 -107 22q-29 -147 -29 -351v-92q0 -239 55 -532l-7 -4h-200q-7 0 -7 7q55 281 55 540v70q0 220 -29 362q-52 -22 -108 -22h-11
q-145 0 -247 126q-41 59 -41 111v26q0 57 26 85h4q90 -122 218 -122q84 0 147 55v11q0 105 89 174zM171 961h3q90 -78 218 -78q44 0 82 8q22 -34 33 -307q0 -196 -48 -388l-7 -4q-7 0 -26 130q0 132 -215 513q-48 100 -48 122zM1058 961h7q7 -1 7 -7q-30 -96 -177 -359
q-89 -207 -89 -288q-7 -27 -18 -115h-8q-20 0 -48 288q-3 56 -3 104q0 176 29 307q40 -8 85 -8h4q126 0 211 78z" />
    <glyph glyph-name="asciitilde" unicode="~" horiz-adv-x="833" 
d="M460 1429h7q4 0 34 -99q40 -101 140 -205v-4q-43 -46 -89 -106h-3q-39 48 -79 48h-14q-40 0 -78 -48h-4q-46 60 -89 106v4q140 155 154 253q17 51 21 51zM456 1029h14q45 0 55 -65q-16 -55 -52 -55h-20q-42 0 -51 65q15 55 54 55zM422 882q22 -7 31 -7h20q7 0 35 7l3 -7
q0 -24 -7 -123l7 -3q99 102 246 102q75 -2 75 -13v-4q-78 -61 -140 -123q-171 -216 -171 -499v-27q0 -33 17 -168q-27 -17 -61 -17h-27q-55 3 -62 21q17 128 17 164v27q0 400 -311 619v7q0 11 79 13q138 0 246 -102l3 7q-3 74 -10 119zM128 728q137 -98 198 -301
q35 -107 35 -218q-4 -124 -21 -124h-3q-7 0 -24 134q-67 281 -140 413q-52 78 -52 89q1 7 7 7zM802 728l3 -7q0 -8 -44 -82q-55 -91 -117 -290q-34 -141 -51 -264h-7q-17 0 -20 124q0 264 171 468q53 51 65 51z" />
    <glyph glyph-name="exclamdown" unicode="&#xa1;" horiz-adv-x="1227" 
d="M568 1420h41q121 -27 121 -122v-11q0 -30 -11 -70q133 -23 133 -127v-29q0 -112 -145 -128h-6q-53 0 -116 64q-48 -64 -110 -64h-6q-144 16 -144 128v29q0 104 133 127q-12 38 -12 52v29q27 122 122 122zM41 1020q174 -17 359 -156q142 -129 180 -273q1 -11 11 -11
q76 240 313 371q175 69 232 69q35 -38 35 -64v-69q0 -26 -35 -70q-62 12 -110 12q-320 0 -383 -464v-110q0 -81 41 -238v-5q-44 -12 -81 -12h-29q-38 0 -81 12v5q40 157 40 238v81q0 297 -214 446q-83 47 -180 47q-31 0 -98 -12q-41 50 -41 93v35q0 29 41 75z" />
    <glyph glyph-name="cent" unicode="&#xa2;" horiz-adv-x="1139" 
 />
    <glyph glyph-name="sterling" unicode="&#xa3;" 
 />
    <glyph glyph-name="currency" unicode="&#xa4;" 
 />
    <glyph glyph-name="yen" unicode="&#xa5;" horiz-adv-x="1262" 
 />
    <glyph glyph-name="brokenbar" unicode="&#xa6;" 
 />
    <glyph glyph-name="section" unicode="&#xa7;" 
 />
    <glyph glyph-name="dieresis" unicode="&#xa8;" horiz-adv-x="1024" 
 />
    <glyph glyph-name="copyright" unicode="&#xa9;" horiz-adv-x="1674" 
 />
    <glyph glyph-name="ordfeminine" unicode="&#xaa;" horiz-adv-x="648" 
 />
    <glyph glyph-name="guillemotleft" unicode="&#xab;" horiz-adv-x="944" 
 />
    <glyph glyph-name="logicalnot" unicode="&#xac;" 
 />
    <glyph glyph-name="registered" unicode="&#xae;" horiz-adv-x="1674" 
 />
    <glyph glyph-name="macron" unicode="&#xaf;" horiz-adv-x="670" 
 />
    <glyph glyph-name="degree" unicode="&#xb0;" horiz-adv-x="674" 
 />
    <glyph glyph-name="plusminus" unicode="&#xb1;" 
 />
    <glyph glyph-name="uni00B2" unicode="&#xb2;" 
 />
    <glyph glyph-name="uni00B3" unicode="&#xb3;" 
 />
    <glyph glyph-name="acute" unicode="&#xb4;" horiz-adv-x="1024" 
 />
    <glyph glyph-name="mu" unicode="&#xb5;" horiz-adv-x="1180" 
 />
    <glyph glyph-name="paragraph" unicode="&#xb6;" horiz-adv-x="1024" 
 />
    <glyph glyph-name="periodcentered" unicode="&#xb7;" horiz-adv-x="508" 
 />
    <glyph glyph-name="periodcentered" unicode="&#x2219;" horiz-adv-x="508" 
 />
    <glyph glyph-name="cedilla" unicode="&#xb8;" horiz-adv-x="1024" 
 />
    <glyph glyph-name="uni00B9" unicode="&#xb9;" 
 />
    <glyph glyph-name="ordmasculine" unicode="&#xba;" horiz-adv-x="718" 
 />
    <glyph glyph-name="guillemotright" unicode="&#xbb;" horiz-adv-x="944" 
 />
    <glyph glyph-name="onequarter" unicode="&#xbc;" horiz-adv-x="1708" 
 />
    <glyph glyph-name="onehalf" unicode="&#xbd;" horiz-adv-x="1964" 
 />
    <glyph glyph-name="threequarters" unicode="&#xbe;" horiz-adv-x="1708" 
 />
    <glyph glyph-name="questiondown" unicode="&#xbf;" horiz-adv-x="748" 
 />
    <glyph glyph-name="Agrave" unicode="&#xc0;" horiz-adv-x="1540" 
 />
    <glyph glyph-name="Aacute" unicode="&#xc1;" horiz-adv-x="1540" 
 />
    <glyph glyph-name="Acircumflex" unicode="&#xc2;" horiz-adv-x="1540" 
 />
    <glyph glyph-name="Atilde" unicode="&#xc3;" horiz-adv-x="1540" 
 />
    <glyph glyph-name="Adieresis" unicode="&#xc4;" horiz-adv-x="1540" 
 />
    <glyph glyph-name="Aring" unicode="&#xc5;" horiz-adv-x="1540" 
 />
    <glyph glyph-name="AE" unicode="&#xc6;" horiz-adv-x="2118" 
 />
    <glyph glyph-name="Ccedilla" unicode="&#xc7;" horiz-adv-x="1399" 
 />
    <glyph glyph-name="Egrave" unicode="&#xc8;" horiz-adv-x="1151" 
 />
    <glyph glyph-name="Eacute" unicode="&#xc9;" horiz-adv-x="1151" 
 />
    <glyph glyph-name="Ecircumflex" unicode="&#xca;" horiz-adv-x="1151" 
 />
    <glyph glyph-name="Edieresis" unicode="&#xcb;" horiz-adv-x="1151" 
 />
    <glyph glyph-name="Igrave" unicode="&#xcc;" horiz-adv-x="657" 
 />
    <glyph glyph-name="Iacute" unicode="&#xcd;" horiz-adv-x="657" 
 />
    <glyph glyph-name="Icircumflex" unicode="&#xce;" horiz-adv-x="657" 
 />
    <glyph glyph-name="Idieresis" unicode="&#xcf;" horiz-adv-x="657" 
 />
    <glyph glyph-name="Eth" unicode="&#xd0;" horiz-adv-x="1518" 
 />
    <glyph glyph-name="Ntilde" unicode="&#xd1;" horiz-adv-x="1554" 
 />
    <glyph glyph-name="Ograve" unicode="&#xd2;" horiz-adv-x="1614" 
 />
    <glyph glyph-name="Oacute" unicode="&#xd3;" horiz-adv-x="1614" 
 />
    <glyph glyph-name="Ocircumflex" unicode="&#xd4;" horiz-adv-x="1614" 
 />
    <glyph glyph-name="Otilde" unicode="&#xd5;" horiz-adv-x="1614" 
 />
    <glyph glyph-name="Odieresis" unicode="&#xd6;" horiz-adv-x="1614" 
 />
    <glyph glyph-name="multiply" unicode="&#xd7;" 
 />
    <glyph glyph-name="Oslash" unicode="&#xd8;" horiz-adv-x="1614" 
 />
    <glyph glyph-name="Ugrave" unicode="&#xd9;" horiz-adv-x="1501" 
 />
    <glyph glyph-name="Uacute" unicode="&#xda;" horiz-adv-x="1501" 
 />
    <glyph glyph-name="Ucircumflex" unicode="&#xdb;" horiz-adv-x="1501" 
 />
    <glyph glyph-name="Udieresis" unicode="&#xdc;" horiz-adv-x="1501" 
 />
    <glyph glyph-name="Yacute" unicode="&#xdd;" horiz-adv-x="1233" 
 />
    <glyph glyph-name="Thorn" unicode="&#xde;" horiz-adv-x="1120" 
 />
    <glyph glyph-name="germandbls" unicode="&#xdf;" horiz-adv-x="1251" 
 />
    <glyph glyph-name="agrave" unicode="&#xe0;" horiz-adv-x="922" 
 />
    <glyph glyph-name="aacute" unicode="&#xe1;" horiz-adv-x="922" 
 />
    <glyph glyph-name="acircumflex" unicode="&#xe2;" horiz-adv-x="922" 
 />
    <glyph glyph-name="atilde" unicode="&#xe3;" horiz-adv-x="922" 
 />
    <glyph glyph-name="adieresis" unicode="&#xe4;" horiz-adv-x="922" 
 />
    <glyph glyph-name="aring" unicode="&#xe5;" horiz-adv-x="922" 
 />
    <glyph glyph-name="ae" unicode="&#xe6;" horiz-adv-x="1454" 
 />
    <glyph glyph-name="ccedilla" unicode="&#xe7;" horiz-adv-x="905" 
 />
    <glyph glyph-name="egrave" unicode="&#xe8;" horiz-adv-x="909" 
 />
    <glyph glyph-name="eacute" unicode="&#xe9;" horiz-adv-x="909" 
 />
    <glyph glyph-name="ecircumflex" unicode="&#xea;" horiz-adv-x="909" 
 />
    <glyph glyph-name="edieresis" unicode="&#xeb;" horiz-adv-x="909" 
 />
    <glyph glyph-name="igrave" unicode="&#xec;" horiz-adv-x="514" 
 />
    <glyph glyph-name="iacute" unicode="&#xed;" horiz-adv-x="514" 
 />
    <glyph glyph-name="icircumflex" unicode="&#xee;" horiz-adv-x="514" 
 />
    <glyph glyph-name="idieresis" unicode="&#xef;" horiz-adv-x="514" 
 />
    <glyph glyph-name="eth" unicode="&#xf0;" horiz-adv-x="1139" 
 />
    <glyph glyph-name="ntilde" unicode="&#xf1;" horiz-adv-x="1108" 
 />
    <glyph glyph-name="ograve" unicode="&#xf2;" horiz-adv-x="1010" 
 />
    <glyph glyph-name="oacute" unicode="&#xf3;" horiz-adv-x="1010" 
 />
    <glyph glyph-name="ocircumflex" unicode="&#xf4;" horiz-adv-x="1010" 
 />
    <glyph glyph-name="otilde" unicode="&#xf5;" horiz-adv-x="1010" 
 />
    <glyph glyph-name="odieresis" unicode="&#xf6;" horiz-adv-x="1010" 
 />
    <glyph glyph-name="divide" unicode="&#xf7;" 
 />
    <glyph glyph-name="oslash" unicode="&#xf8;" horiz-adv-x="1010" 
 />
    <glyph glyph-name="ugrave" unicode="&#xf9;" horiz-adv-x="1059" 
 />
    <glyph glyph-name="uacute" unicode="&#xfa;" horiz-adv-x="1059" 
 />
    <glyph glyph-name="ucircumflex" unicode="&#xfb;" horiz-adv-x="1059" 
 />
    <glyph glyph-name="udieresis" unicode="&#xfc;" horiz-adv-x="1059" 
 />
    <glyph glyph-name="yacute" unicode="&#xfd;" horiz-adv-x="868" 
 />
    <glyph glyph-name="thorn" unicode="&#xfe;" horiz-adv-x="1010" 
 />
    <glyph glyph-name="ydieresis" unicode="&#xff;" horiz-adv-x="868" 
 />
    <glyph glyph-name="dotlessi" unicode="&#x131;" horiz-adv-x="514" 
 />
    <glyph glyph-name="circumflex" unicode="&#x2c6;" horiz-adv-x="1024" 
 />
    <glyph glyph-name="caron" unicode="&#x2c7;" horiz-adv-x="1024" 
 />
    <glyph glyph-name="uni02C9" unicode="&#x2c9;" horiz-adv-x="1024" 
 />
    <glyph glyph-name="breve" unicode="&#x2d8;" horiz-adv-x="1024" 
 />
    <glyph glyph-name="dotaccent" unicode="&#x2d9;" horiz-adv-x="1024" 
 />
    <glyph glyph-name="ring" unicode="&#x2da;" horiz-adv-x="1024" 
 />
    <glyph glyph-name="ogonek" unicode="&#x2db;" horiz-adv-x="1024" 
 />
    <glyph glyph-name="tilde" unicode="&#x2dc;" horiz-adv-x="1024" 
 />
    <glyph glyph-name="hungarumlaut" unicode="&#x2dd;" horiz-adv-x="1024" 
 />
    <glyph glyph-name="endash" unicode="&#x2013;" horiz-adv-x="1108" 
 />
    <glyph glyph-name="emdash" unicode="&#x2014;" horiz-adv-x="2048" 
 />
    <glyph glyph-name="quoteleft" unicode="&#x2018;" horiz-adv-x="557" 
 />
    <glyph glyph-name="quoteright" unicode="&#x2019;" horiz-adv-x="557" 
 />
    <glyph glyph-name="quotesinglbase" unicode="&#x201a;" horiz-adv-x="557" 
 />
    <glyph glyph-name="quotedblleft" unicode="&#x201c;" horiz-adv-x="910" 
 />
    <glyph glyph-name="quotedblright" unicode="&#x201d;" horiz-adv-x="910" 
 />
    <glyph glyph-name="quotedblbase" unicode="&#x201e;" horiz-adv-x="910" 
 />
    <glyph glyph-name="dagger" unicode="&#x2020;" 
 />
    <glyph glyph-name="daggerdbl" unicode="&#x2021;" 
 />
    <glyph glyph-name="bullet" unicode="&#x2022;" horiz-adv-x="1024" 
 />
    <glyph glyph-name="ellipsis" unicode="&#x2026;" horiz-adv-x="2048" 
 />
    <glyph glyph-name="guilsinglleft" unicode="&#x2039;" horiz-adv-x="631" 
 />
    <glyph glyph-name="guilsinglright" unicode="&#x203a;" horiz-adv-x="631" 
 />
    <glyph glyph-name="fraction" unicode="&#x2044;" horiz-adv-x="342" 
 />
    <glyph glyph-name="fraction" unicode="&#x2215;" horiz-adv-x="342" 
 />
    <glyph glyph-name="franc" unicode="&#x20a3;" 
 />
    <glyph glyph-name="lira" unicode="&#x20a4;" 
 />
    <glyph glyph-name="peseta" unicode="&#x20a7;" horiz-adv-x="2028" 
 />
    <glyph glyph-name="Euro" unicode="&#x20ac;" 
 />
    <glyph glyph-name="afii61352" unicode="&#x2116;" horiz-adv-x="2271" 
 />
    <glyph glyph-name="trademark" unicode="&#x2122;" horiz-adv-x="1497" 
 />
    <glyph glyph-name="partialdiff" unicode="&#x2202;" 
 />
    <glyph glyph-name="Delta" unicode="&#x2206;" horiz-adv-x="1081" 
 />
    <glyph glyph-name="product" unicode="&#x220f;" horiz-adv-x="1515" 
 />
    <glyph glyph-name="summation" unicode="&#x2211;" horiz-adv-x="1206" 
 />
    <glyph glyph-name="minus" unicode="&#x2212;" 
 />
    <glyph glyph-name="radical" unicode="&#x221a;" 
 />
    <glyph glyph-name="infinity" unicode="&#x221e;" 
 />
    <glyph glyph-name="integral" unicode="&#x222b;" horiz-adv-x="665" 
 />
    <glyph glyph-name="approxequal" unicode="&#x2248;" 
 />
    <glyph glyph-name="lessequal" unicode="&#x2264;" 
 />
    <glyph glyph-name="greaterequal" unicode="&#x2265;" 
 />
    <glyph glyph-name="uniF001" unicode="&#xf001;" horiz-adv-x="1073" 
 />
    <glyph glyph-name="uniF001" unicode="&#xfb01;" horiz-adv-x="1073" 
 />
    <glyph glyph-name="uniF002" unicode="&#xf002;" horiz-adv-x="1081" 
 />
    <glyph glyph-name="uniF002" unicode="&#xfb02;" horiz-adv-x="1081" 
 />
  </font>
</defs>
</svg>
